<?xml version="1.0" standalone="no"?>
<!DOCTYPE svg PUBLIC "-//W3C//DTD SVG 1.1//EN" "http://www.w3.org/Graphics/SVG/1.1/DTD/svg11.dtd" >
<svg>
<metadata>
Created by FontForge 20090914 at Tue Oct 10 14:11:01 2017
 By www-data
Shrewsbury Roman Copyright (C) PJL '96
</metadata>
<defs>
<font id="Shrewsbury" horiz-adv-x="189" >
  <font-face 
    font-family="Shrewsbury"
    font-weight="400"
    font-stretch="normal"
    units-per-em="1000"
    panose-1="2 2 5 0 0 0 0 0 0 0"
    ascent="800"
    descent="-200"
    x-height="539.001"
    cap-height="760.002"
    bbox="-2 -280.001 951.001 857.999"
    underline-thickness="50"
    underline-position="-100"
    unicode-range="U+0020-U+00F8"
  />
<missing-glyph horiz-adv-x="502" 
d="M-1 0h500v500h-500v-500zM9 10v480h480v-480h-480z" />
    <glyph glyph-name=".notdef" unicode="&#xa5;" horiz-adv-x="502" 
d="M-1 0h500v500h-500v-500zM9 10v480h480v-480h-480z" />
    <glyph glyph-name=".notdef" unicode="&#xe01e;" horiz-adv-x="502" 
d="M-1 0h500v500h-500v-500zM9 10v480h480v-480h-480z" />
    <glyph glyph-name=".notdef" unicode="&#x25ca;" horiz-adv-x="502" 
d="M-1 0h500v500h-500v-500zM9 10v480h480v-480h-480z" />
    <glyph glyph-name=".notdef" unicode="&#x2260;" horiz-adv-x="502" 
d="M-1 0h500v500h-500v-500zM9 10v480h480v-480h-480z" />
    <glyph glyph-name=".notdef" unicode="&#x2248;" horiz-adv-x="502" 
d="M-1 0h500v500h-500v-500zM9 10v480h480v-480h-480z" />
    <glyph glyph-name=".notdef" unicode="&#x222b;" horiz-adv-x="502" 
d="M-1 0h500v500h-500v-500zM9 10v480h480v-480h-480z" />
    <glyph glyph-name=".notdef" unicode="&#x221e;" horiz-adv-x="502" 
d="M-1 0h500v500h-500v-500zM9 10v480h480v-480h-480z" />
    <glyph glyph-name=".notdef" unicode="&#x221a;" horiz-adv-x="502" 
d="M-1 0h500v500h-500v-500zM9 10v480h480v-480h-480z" />
    <glyph glyph-name=".notdef" unicode="&#x2211;" horiz-adv-x="502" 
d="M-1 0h500v500h-500v-500zM9 10v480h480v-480h-480z" />
    <glyph glyph-name=".notdef" unicode="&#x220f;" horiz-adv-x="502" 
d="M-1 0h500v500h-500v-500zM9 10v480h480v-480h-480z" />
    <glyph glyph-name=".notdef" unicode="&#x2202;" horiz-adv-x="502" 
d="M-1 0h500v500h-500v-500zM9 10v480h480v-480h-480z" />
    <glyph glyph-name=".notdef" unicode="&#x2122;" horiz-adv-x="502" 
d="M-1 0h500v500h-500v-500zM9 10v480h480v-480h-480z" />
    <glyph glyph-name=".notdef" unicode="&#x20ac;" horiz-adv-x="502" 
d="M-1 0h500v500h-500v-500zM9 10v480h480v-480h-480z" />
    <glyph glyph-name=".notdef" unicode="&#x2044;" horiz-adv-x="502" 
d="M-1 0h500v500h-500v-500zM9 10v480h480v-480h-480z" />
    <glyph glyph-name=".notdef" unicode="&#x2030;" horiz-adv-x="502" 
d="M-1 0h500v500h-500v-500zM9 10v480h480v-480h-480z" />
    <glyph glyph-name=".notdef" unicode="&#x2026;" horiz-adv-x="502" 
d="M-1 0h500v500h-500v-500zM9 10v480h480v-480h-480z" />
    <glyph glyph-name=".notdef" unicode="&#x3c0;" horiz-adv-x="502" 
d="M-1 0h500v500h-500v-500zM9 10v480h480v-480h-480z" />
    <glyph glyph-name=".notdef" unicode="&#x3a9;" horiz-adv-x="502" 
d="M-1 0h500v500h-500v-500zM9 10v480h480v-480h-480z" />
    <glyph glyph-name=".notdef" unicode="&#x394;" horiz-adv-x="502" 
d="M-1 0h500v500h-500v-500zM9 10v480h480v-480h-480z" />
    <glyph glyph-name=".notdef" unicode="&#x192;" horiz-adv-x="502" 
d="M-1 0h500v500h-500v-500zM9 10v480h480v-480h-480z" />
    <glyph glyph-name=".notdef" unicode="&#x178;" horiz-adv-x="502" 
d="M-1 0h500v500h-500v-500zM9 10v480h480v-480h-480z" />
    <glyph glyph-name=".notdef" unicode="&#x131;" horiz-adv-x="502" 
d="M-1 0h500v500h-500v-500zM9 10v480h480v-480h-480z" />
    <glyph glyph-name=".notdef" unicode="&#xff;" horiz-adv-x="502" 
d="M-1 0h500v500h-500v-500zM9 10v480h480v-480h-480z" />
    <glyph glyph-name="space" unicode=" " horiz-adv-x="228" 
 />
    <glyph glyph-name="exclam" unicode="!" horiz-adv-x="275" 
d="M188 165c-18 0 -33.333 -8 -46 -24s-19 -35.667 -19 -59c0 -22.667 6.33301 -42 19 -58s28 -24 46 -24s33.333 8 46 24s19 35.333 19 58c0 23.333 -6.33301 43 -19 59s-28 24 -46 24zM189 245c12.667 0 21.502 10.3291 26.502 30.9961s9.5 54.334 13.5 101.001
c2 16.667 3 26.334 3 29.001l7 63c4.66699 42.667 8.16699 76.5 10.5 101.5s3.5 47.5 3.5 67.5c0 14 -1.5 28.833 -4.5 44.5s-7.33301 30.334 -13 44.001s-13.167 24.834 -22.5 33.501s-20 13 -32 13c-10.667 0 -21 -1.83301 -31 -5.5s-22 -9.5 -36 -17.5
c-12 -6.66699 -21.333 -11.334 -28 -14.001s-15.334 -5.66699 -26.001 -9c-14 -4.66699 -24.167 -9 -30.5 -13s-9.5 -9.66699 -9.5 -17c0 -6.66699 1.83301 -12.167 5.5 -16.5s9.5 -6.5 17.5 -6.5c4 0 9.33301 0.666992 16 2c11.333 1.33301 20.333 2 27 2
c9.33301 0 17 -5.66699 23 -17s10.667 -27.166 14 -47.499s5.83301 -41.5 7.5 -63.5l6.5 -86c1.33301 -34 3 -63 5 -87s4.83301 -46 8.5 -66s8.66699 -36 15 -48s14.166 -18 23.499 -18z" />
    <glyph glyph-name="quotedbl" unicode="&#x22;" horiz-adv-x="261" 
d="M20 768l8 -86.999c2 -16.667 6.5 -30.334 13.5 -41.001s16.833 -16 29.5 -16s22.5 5 29.5 15s11.167 24 12.5 42l7 87h-100zM141 767.001l8 -86.999c2 -16.667 6.5 -30.334 13.5 -41.001s16.833 -16 29.5 -16s22.5 5 29.5 15s11.167 24 12.5 42l7 87h-100z" />
    <glyph glyph-name="ampersand" unicode="&#x26;" horiz-adv-x="826" 
d="M355 766c-30.667 0 -60.6689 -4.66797 -90.002 -14.001s-55.5 -22.166 -78.5 -38.499s-41 -35.166 -54 -56.499s-19.5 -43.666 -19.5 -66.999c0 -21.333 4.5 -42.666 13.5 -63.999s21.833 -43 38.5 -65c2 -2.66699 4 -5 6 -7c6 -7.33301 9 -12.333 9 -15
c0 -5.33301 -5.66699 -11 -17 -17c-43.333 -23.333 -78 -52.666 -104 -87.999s-39 -74 -39 -116c0 -31.333 7 -61 21 -89s33.667 -52.667 59 -74s54.833 -38 88.5 -50s69.167 -18 106.5 -18c44.667 0 86.5 8.33301 125.5 25s71.167 39.667 96.5 69
c28.667 -32 52.334 -55.667 71.001 -71s37.667 -23 57 -23c15.333 0 32.166 2 50.499 6s36.166 9.33301 53.499 16c18.667 6.66699 32.834 13 42.501 19s14.5 13.333 14.5 22c0 4.66699 -1.16699 9 -3.5 13s-5.83301 6 -10.5 6c-3.33301 0 -8.33301 -0.333008 -15 -1
c-10.667 -1.33301 -21 -2 -31 -2c-15.333 0 -30.166 5.5 -44.499 16.5s-33.833 29.167 -58.5 54.5l-23 23c-8.66699 8.66699 -13 20.334 -13 35.001c0 23.333 3.33301 51.666 10 84.999s14.334 60.666 23.001 81.999c2 4.66699 6 8.5 12 11.5s14 6.16699 24 9.5
c11.333 3.33301 19.833 6.83301 25.5 10.5s8.5 8.5 8.5 14.5c0 7.33301 -3.66699 13.666 -11 18.999s-17 9.83301 -29 13.5s-24.333 6.33398 -37 8.00098s-24 2.5 -34 2.5c-26.667 0 -47.167 -4.5 -61.5 -13.5s-21.5 -26.5 -21.5 -52.5c0 -10.667 1.66699 -27 5 -49
c3.33301 -20 5 -35.333 5 -46c0 -12.667 -3 -19 -9 -19c-2 0 -5 2.33301 -9 7c-2.66699 4 -5.33398 7.33301 -8.00098 10l-149 159c-4 4.66699 -13 14 -27 28c-30 31.333 -52.5 57.5 -67.5 78.5s-22.5 42.167 -22.5 63.5c0 22 8.5 38.333 25.5 49s39.833 16 68.5 16
c27.333 0 49.833 -3.33301 67.5 -10s31.334 -15.334 41.001 -26.001s16.834 -21.334 21.501 -32.001s9 -24 13 -40c4 -15.333 7.83301 -26.333 11.5 -33s9.5 -10 17.5 -10c7.33301 0 14.166 5 20.499 15s11.666 22.833 15.999 38.5s7.66602 31.834 9.99902 48.501
s3.5 31.334 3.5 44.001c0 15.333 -6.33301 28.666 -19 39.999s-29.167 20.666 -49.5 27.999s-41.666 12.666 -63.999 15.999s-43.166 5 -62.499 5zM339.998 68.999c-22.667 0 -45.333 5.16602 -68 15.499s-43.167 24 -61.5 41s-33 36 -44 57s-16.5 41.5 -16.5 61.5
c0 31.333 8.33301 58 25 80s39.667 37.667 69 47l225 -239c-11.333 -19.333 -28.5 -34.666 -51.5 -45.999s-48.833 -17 -77.5 -17z" />
    <glyph glyph-name="quotesingle" unicode="'" horiz-adv-x="140" 
d="M20 768l8 -86.999c2 -16.667 6.5 -30.334 13.5 -41.001s16.833 -16 29.5 -16s22.5 5 29.5 15s11.167 24 12.5 42l7 87h-100z" />
    <glyph glyph-name="parenleft" unicode="(" horiz-adv-x="279" 
d="M142 455c0 53.333 3.33301 101.832 10 145.499s15.667 80.834 27 111.501c6.66699 19.333 14 36.166 22 50.499s16.667 28.833 26 43.5c11.333 18 17 30 17 36c0 3.33301 -1.33301 6.83301 -4 10.5s-6 5.5 -10 5.5c-24 0 -48.333 -14.167 -73 -42.5s-47.5 -65 -68.5 -110
s-37.667 -92 -50 -141s-18.5 -92.833 -18.5 -131.5c0 -99.333 14.667 -188.333 44 -267c12 -32.667 26 -63 42 -91s32.167 -52.333 48.5 -73s31.833 -36.5 46.5 -47.5s26.667 -16.5 36 -16.5c3.33301 0 7.83301 2 13.5 6s8.5 8 8.5 12c0 3.33301 -4.66699 14 -14 32
c-19.333 36 -34.333 68 -45 96c-17.333 46.667 -31.333 101.334 -42 164.001s-16 131.667 -16 207z" />
    <glyph glyph-name="parenright" unicode=")" horiz-adv-x="291" 
d="M142 370c0 -40.667 -0.833984 -75.334 -2.50098 -104.001s-4.16699 -54.167 -7.5 -76.5s-7.66602 -43 -12.999 -62s-12.333 -39.833 -21 -62.5c-10 -28 -23.667 -58.333 -41 -91c-8.66699 -17.333 -13 -28 -13 -32s3 -8 9 -12s10.333 -6 13 -6
c20.667 0 46.5 20.167 77.5 60.5s58.833 92.833 83.5 157.5c14.667 40 25.667 80.5 33 121.5s11 86.167 11 135.5c0 46.667 -7.5 96.167 -22.5 148.5s-34.667 101.333 -59 147s-50.333 82.334 -78 110.001s-53.5 41.5 -77.5 41.5c-4 0 -7.33301 -1.83301 -10 -5.5
s-4 -7.16699 -4 -10.5c0 -6 5.66699 -18 17 -36c10.667 -16 19.5 -30.833 26.5 -44.5s14.167 -30.167 21.5 -49.5c5.33301 -14.667 11.333 -35 18 -61s13 -55 19 -87s10.833 -63.833 14.5 -95.5s5.5 -60.5 5.5 -86.5z" />
    <glyph glyph-name="comma" unicode="," 
d="M85 170c-18 0 -33.3311 -7.99805 -45.998 -23.998s-19 -35.667 -19 -59c0 -24.667 6.83301 -45.334 20.5 -62.001s30.834 -25 51.501 -25v-16c0 -12.667 -2.33301 -22.5 -7 -29.5s-11 -13.5 -19 -19.5c-10 -8 -15 -15.333 -15 -22c0 -4 2.16699 -7 6.5 -9
s8.83301 -3 13.5 -3c9.33301 0 19.666 4.66699 30.999 14s22.166 21.666 32.499 36.999s18.666 32.5 24.999 51.5s9.5 37.5 9.5 55.5c0 10.667 -2.16699 22.5 -6.5 35.5s-10.5 25.333 -18.5 37s-17 21 -27 28s-20.667 10.5 -32 10.5z" />
    <glyph glyph-name="hyphen" unicode="-" horiz-adv-x="250" 
d="M20 407v-33h210v33h-210z" />
    <glyph glyph-name="period" unicode="." horiz-adv-x="171" 
d="M86 165c-18 0 -33.333 -8 -46 -24s-19 -35.667 -19 -59c0 -22.667 6.33301 -42 19 -58s28 -24 46 -24s33.333 8 46 24s19 35.333 19 58c0 23.333 -6.33301 43 -19 59s-28 24 -46 24z" />
    <glyph glyph-name="slash" unicode="/" horiz-adv-x="264" 
d="M175 768l-155 -768h62l162 768h-69z" />
    <glyph glyph-name="zero" unicode="0" horiz-adv-x="514" 
d="M244 646c-32 0 -61.833 -8.49805 -89.5 -25.498s-51.5 -40.5 -71.5 -70.5s-35.5 -64.833 -46.5 -104.5s-16.5 -81.834 -16.5 -126.501c0 -44 6.16699 -85.833 18.5 -125.5s29.333 -74.5 51 -104.5s47 -53.333 76 -70s59.5 -25 91.5 -25s62.5 8.33301 91.5 25
s54.5 40.167 76.5 70.5s39 65.166 51 104.499s18 81 18 125c0 43.333 -6.66699 85 -20 125s-31.833 75.167 -55.5 105.5s-50.667 54 -81 71s-61.5 25.5 -93.5 25.5zM220 580.002c18.667 0 37.332 -11.167 55.999 -33.5s35.834 -51.833 51.501 -88.5s28 -75.334 37 -116.001
s13.5 -78.667 13.5 -114c0 -33.333 -2.5 -60.666 -7.5 -81.999s-11.667 -37.5 -20 -48.5s-17.333 -18.167 -27 -21.5s-20.5 -5 -32.5 -5c-24 0 -46.167 11.167 -66.5 33.5s-38 51.5 -53 87.5s-26.5 74.667 -34.5 116s-12 80 -12 116c0 52 6.83301 91 20.5 117
s38.5 39 74.5 39z" />
    <glyph glyph-name="one" unicode="1" horiz-adv-x="388" 
d="M135 140c0 -28.667 -5.5 -49.165 -16.5 -61.498s-25.833 -22.833 -44.5 -31.5c-10 -4 -17.167 -7.83301 -21.5 -11.5s-6.5 -8.5 -6.5 -14.5c0 -6.66699 2.33301 -11.834 7 -15.501s13 -5.5 25 -5.5c14.667 0 36 1.66699 64 5c36 4.66699 65 7 87 7
c8.66699 0 24.334 -1.66699 47.001 -5c27.333 -4.66699 47.666 -7 60.999 -7c8.66699 0 16 2.66699 22 8s9 13.666 9 24.999c0 5.33301 -2.5 9 -7.5 11s-13.167 4.33301 -24.5 7c-10 2 -19 4.33301 -27 7s-15.667 6.66699 -23 12s-13.166 12.833 -17.499 22.5
s-6.5 21.5 -6.5 35.5v446c0 19.333 -3.83301 35.5 -11.5 48.5s-17.834 19.5 -30.501 19.5c-8 0 -19.333 -3.33301 -34 -10s-30.5 -15.167 -47.5 -25.5s-34.333 -21.833 -52 -34.5l-44.5 -33c-5.33301 -4.66699 -10.333 -10 -15 -16s-7 -11.333 -7 -16
c0 -6 2 -10.167 6 -12.5s9 -3.5 15 -3.5c9.33301 0 21.333 5.33301 36 16c12 8.66699 21 13 27 13c10 0 17.667 -6 23 -18s8 -25 8 -39v-323z" />
    <glyph glyph-name="two" unicode="2" horiz-adv-x="462" 
d="M145 12c19.333 0 49.002 -3.66602 89.002 -10.999c38.667 -7.33301 67.667 -11 87 -11c15.333 0 30.5 7 45.5 21s27.833 30.333 38.5 49c3.33301 6 8.66602 13.667 15.999 23c7.33301 10.667 12.666 19.5 15.999 26.5s5 14.833 5 23.5c0 8 -1.16699 15.5 -3.5 22.5
s-6.83301 10.5 -13.5 10.5c-5.33301 0 -13.333 -5.66699 -24 -17c-11.333 -11.333 -22.833 -20.5 -34.5 -27.5s-27.167 -10.5 -46.5 -10.5c-4.66699 0 -18.334 2 -41.001 6c-18 3.33301 -32.5 5.66602 -43.5 6.99902s-21.5 2 -31.5 2
c-7.33301 0 -17.666 -0.666992 -30.999 -2c-9.33301 -1.33301 -15.333 -2 -18 -2c-11.333 0 -17 5 -17 15c0 17.333 8 33.833 24 49.5s41.667 35.5 77 59.5c26.667 19.333 48.667 35.833 66 49.5s34.166 29.5 50.499 47.5s29.333 38.167 39 60.5s14.5 46.833 14.5 73.5
s-5.33301 51 -16 73s-25 40.833 -43 56.5s-38.167 27.5 -60.5 35.5s-44.5 12 -66.5 12c-29.333 0 -56.5 -6 -81.5 -18s-46.667 -28 -65 -48s-32.333 -41.667 -42 -65s-14.5 -45.333 -14.5 -66c0 -5.33301 1.83301 -10.5 5.5 -15.5s8.83398 -7.5 15.501 -7.5s13 1.5 19 4.5
s10 8.83301 12 17.5c8 29.333 20.833 54.333 38.5 75s41.167 31 70.5 31c10.667 0 21.834 -2.83301 33.501 -8.5s22.167 -13.167 31.5 -22.5s16.833 -19.833 22.5 -31.5s8.5 -23.167 8.5 -34.5c0 -32 -9.33301 -61.667 -28 -89s-47 -60.666 -85 -99.999l-55 -60
c-14 -16 -27.333 -33.833 -40 -53.5s-22.834 -40.834 -30.501 -63.501s-11.5 -46.667 -11.5 -72c0 -22 11.667 -33 35 -33c8.66699 0 21 2.66699 37 8c18.667 6.66699 34 10 46 10z" />
    <glyph glyph-name="three" unicode="3" horiz-adv-x="495" 
d="M20 125c0 -21.333 6.3291 -39.1719 18.9961 -53.5049s29.667 -27.833 51 -40.5c22.667 -13.333 47 -23.333 73 -30s51.667 -10 77 -10c38.667 0 72.834 7.66699 102.501 23s54.334 35.666 74.001 60.999s34.334 53.166 44.001 83.499s14.5 60.166 14.5 89.499
c0 31.333 -4.66699 58.333 -14 81s-21.833 41 -37.5 55s-32.167 24.5 -49.5 31.5s-35 11.833 -53 14.5c-6.66699 0.666992 -10 4.33398 -10 11.001c0 4.66699 3.33301 9.66699 10 15c8 7.33301 13.667 12.333 17 15c30.667 26.667 55 49.834 73 69.501s27 36.834 27 51.501
c0 12.667 -3.66699 23.834 -11 33.501s-19 14.5 -35 14.5c-17.333 0 -46 -1.33301 -86 -4c-31.333 -2.66699 -53.333 -4 -66 -4c-16 0 -38.333 2 -67 6c-27.333 3.33301 -48 5 -62 5c-13.333 0 -24.833 -4.16699 -34.5 -12.5s-17.334 -19 -23.001 -32s-9.66699 -27 -12 -42
s-3.5 -28.833 -3.5 -41.5c0 -10.667 1.5 -20.167 4.5 -28.5s7.83301 -12.5 14.5 -12.5s11.834 2.33301 15.501 7s7.83398 11.667 12.501 21c6 12 12.167 21.333 18.5 28s15.5 10 27.5 10c16 0 39.667 -3 71 -9c34 -6 60.333 -9 79 -9c10 0 15 -2.66699 15 -8
c0 -2.66699 -1.33301 -5 -4 -7c-14 -10 -28.667 -21.667 -44 -35s-30.5 -27.5 -45.5 -42.5s-27.167 -29.167 -36.5 -42.5s-14 -24 -14 -32c0 -4.66699 2.83301 -9.16699 8.5 -13.5s11.5 -6.5 17.5 -6.5c4.66699 0 13 1.33301 25 4c9.33301 2.66699 15.666 4 18.999 4
c16.667 0 34.334 -5 53.001 -15s36.334 -23.5 53.001 -40.5s30 -36 40 -57s15 -42.5 15 -64.5c0 -12 -3.66699 -24.5 -11 -37.5s-17 -25 -29 -36s-24.833 -19.667 -38.5 -26s-26.167 -9.5 -37.5 -9.5c-14 0 -28.833 2.33301 -44.5 7s-29.834 11 -42.501 19
c-30.667 20.667 -46 46.334 -46 77.001c0 6.66699 1 12 3 16s5.33301 8.33301 10 13c4 4.66699 7 8.83398 9 12.501s3 8.5 3 14.5c0 6.66699 -3 11.667 -9 15s-12.667 5 -20 5c-9.33301 0 -19.833 -3.66699 -31.5 -11s-23.834 -16.666 -36.501 -27.999
c-13.333 -12 -23.666 -23.167 -30.999 -33.5s-11 -23.166 -11 -38.499z" />
    <glyph glyph-name="four" unicode="4" horiz-adv-x="528" 
d="M59 197c12 0 35.998 0.669922 71.998 2.00293c42 1.33301 75 2 99 2c12.667 0 23.334 -1.33301 32.001 -4s13 -8.33398 13 -17.001v-40c0 -28.667 -6.16699 -49.167 -18.5 -61.5s-29.166 -22.833 -50.499 -31.5c-11.333 -4.66699 -19.5 -8.83398 -24.5 -12.501
s-7.5 -8.5 -7.5 -14.5c0 -13.333 13 -20 39 -20c14.667 0 36.667 1.66699 66 5c38.667 4.66699 68.667 7 90 7c8.66699 0 21.334 -1.66699 38.001 -5c20.667 -4.66699 37.667 -7 51 -7c10.667 0 19.334 1.66699 26.001 5s10 10.333 10 21c0 6.66699 -2.33301 11.5 -7 14.5
s-12.334 6.16699 -23.001 9.5c-19.333 5.33301 -34.5 13.166 -45.5 23.499s-16.5 28.5 -16.5 54.5v65c26.667 0 46 3.5 58 10.5s22 19.833 30 38.5c5.33301 10.667 9.66602 21.5 12.999 32.5s5 21.833 5 32.5c0 5.33301 -1.5 11 -4.5 17s-7.5 9 -13.5 9
c-8 0 -14.333 -3 -19 -9s-9.33398 -15 -14.001 -27c-5.33301 -14 -10.666 -24.333 -15.999 -31s-13.333 -10 -24 -10h-15v306c0 20.667 -2.16699 39.5 -6.5 56.5s-10.166 25.5 -17.499 25.5c-12.667 0 -38 -17.667 -76 -53s-79.167 -78.5 -123.5 -129.5
s-81.833 -98.833 -112.5 -143.5s-46 -75.667 -46 -93c0 -8 2.66699 -14.667 8 -20s15.666 -8 30.999 -8zM274.998 451.003l0.00195312 -186.999c0 -8 -5.33301 -12 -16 -12c-2.66699 0 -9 -0.333008 -19 -1c-18 -1.33301 -29.667 -2 -35 -2
c-6.66699 0 -16.834 0.166992 -30.501 0.5s-24.834 0.833008 -33.501 1.5l-18 1c-15.333 0 -23 2.33301 -23 7c0 2 3.33301 9.16699 10 21.5s12.334 22.166 17.001 29.499c12.667 20 26.667 40.667 42 62s30.166 40.833 44.499 58.5s26.5 31.5 36.5 41.5s16.667 15 20 15
s5 -12 5 -36z" />
    <glyph glyph-name="five" unicode="5" horiz-adv-x="490" 
d="M78 603c0 -9.33301 -0.99707 -22.167 -2.99707 -38.5s-5 -38.833 -9 -67.5c-4.66699 -33.333 -8.16699 -59.666 -10.5 -78.999s-3.5 -34.666 -3.5 -45.999c0 -4 0.333008 -9.5 1 -16.5s2.33398 -14.5 5.00098 -22.5s6.66699 -14.833 12 -20.5s12 -8.5 20 -8.5
c10.667 0 20.334 1.66699 29.001 5s18.667 8 30 14c12.667 7.33301 23.667 12.666 33 15.999s20.333 5 33 5c16.667 0 34 -5 52 -15s34.667 -23.667 50 -41s27.666 -36.833 36.999 -58.5s14 -43.167 14 -64.5c0 -12.667 -3.33301 -25.167 -10 -37.5
s-15.334 -23.333 -26.001 -33s-22.167 -17.5 -34.5 -23.5s-24.5 -9 -36.5 -9c-9.33301 0 -20.833 2 -34.5 6s-27.5 9.83301 -41.5 17.5s-25.5 17.667 -34.5 30s-13.5 26.166 -13.5 41.499c0 10 3 19.667 9 29c5.33301 8.66699 8 17.667 8 27
c0 6.66699 -1.83301 11.167 -5.5 13.5s-9.16699 3.5 -16.5 3.5c-10 0 -21 -3.5 -33 -10.5s-23.667 -15.5 -35 -25.5c-13.333 -11.333 -24 -23.166 -32 -35.499s-12 -26.166 -12 -41.499c0 -14.667 6.5 -29.667 19.5 -45s28.833 -28.333 47.5 -39
c47.333 -28 96.666 -42 147.999 -42c38.667 0 73 6.83301 103 20.5s54.667 32.334 74 56.001s33.833 50.834 43.5 81.501s14.5 62.667 14.5 96c0 32 -5.83301 60.667 -17.5 86s-27.334 46.666 -47.001 63.999s-41 30.333 -64 39s-46.167 13 -69.5 13
c-37.333 0 -66.5 -4.83301 -87.5 -14.5s-40.833 -23.834 -59.5 -42.501c-3.33301 -3.33301 -6.33301 -5 -9 -5c-1.33301 0 -2 1.66699 -2 5c0 8 0.666992 17.5 2 28.5s3.16602 23 5.49902 36s4.5 24.167 6.5 33.5s3.66699 16.333 5 21s3.83301 10.167 7.5 16.5
s7.5 9.5 11.5 9.5c7.33301 0 19.333 -2.33301 36 -7c20 -5.33301 35.333 -8 46 -8c14.667 0 36 4 64 12c21.333 6 36.666 9 45.999 9c12.667 0 22.167 -2.83301 28.5 -8.5s12.833 -14.167 19.5 -25.5c5.33301 -8 10 -14 14 -18s9 -6 15 -6c6.66699 0 11.167 3.66699 13.5 11
s3.5 16.666 3.5 27.999c0 12.667 -1.5 26.167 -4.5 40.5s-7.5 27.666 -13.5 39.999s-14 22.5 -24 30.5s-22 12 -36 12s-33.333 -2 -58 -6c-26.667 -4 -47.667 -6 -63 -6c-4.66699 0 -12.667 0.333008 -24 1c-23.333 2 -45.666 3 -66.999 3c-22.667 0 -40 -2 -52 -6
s-18 -13.333 -18 -28z" />
    <glyph glyph-name="six" unicode="6" horiz-adv-x="521" 
d="M300 432c-22 0 -44.0029 -4.49902 -66.0029 -13.499s-42 -21.5 -60 -37.5l-2 -2c-4.66699 -3.33301 -7.66699 -5 -9 -5c-4.66699 0 -7 7 -7 21c0 19.333 3.83301 40.833 11.5 64.5s18 46 31 67s28.333 38.167 46 51.5s35.834 20 54.501 20
c14 0 25.833 -1.83301 35.5 -5.5s19.834 -9.16699 30.501 -16.5c15.333 -10 27.666 -15 36.999 -15c3.33301 0 6 2.5 8 7.5s3 10.167 3 15.5c0 7.33301 -3.83301 14.666 -11.5 21.999s-17.5 14 -29.5 20s-24.667 10.667 -38 14s-25.333 5 -36 5
c-41.333 0 -79.166 -8.66699 -113.499 -26s-63.833 -41.5 -88.5 -72.5s-43.5 -67 -56.5 -108s-19.5 -84.833 -19.5 -131.5c0 -46 6.33301 -88.667 19 -128s30.167 -73.333 52.5 -102s48 -50.667 77 -66s59.5 -23 91.5 -23c69.333 0 126.833 22 172.5 66
s68.5 105.333 68.5 184c0 24 -5.16699 47.5 -15.5 70.5s-24.666 43.833 -42.999 62.5s-39.833 33.5 -64.5 44.5s-50.667 16.5 -78 16.5zM259.997 342.001c16 0 32.335 -6.16699 49.002 -18.5s32.167 -28.333 46.5 -48s25.666 -40.5 33.999 -62.5s12.5 -41.667 12.5 -59
c0 -16.667 -2.83301 -31 -8.5 -43s-12.834 -21.5 -21.501 -28.5s-17.667 -12.167 -27 -15.5s-18 -5 -26 -5c-23.333 0 -44.833 6 -64.5 18s-36.5 27.667 -50.5 47s-24.833 40 -32.5 62s-11.5 42.333 -11.5 61c0 26.667 8.66699 48.667 26 66s42 26 74 26z" />
    <glyph glyph-name="seven" unicode="7" horiz-adv-x="452" 
d="M300 101c0 5.33301 -1.83008 9.16699 -5.49707 11.5s-8.16699 3.5 -13.5 3.5c-2.66699 0 -6.66699 -1 -12 -3c-6.66699 -2.66699 -12.334 -4 -17.001 -4c-12 0 -20.5 6.33301 -25.5 19s-7.5 34 -7.5 64c0 32 5.33301 64.5 16 97.5s24.334 64.333 41.001 94
s33.167 56 49.5 79s36.166 49.5 59.499 79.5c16 21.333 27.833 37.5 35.5 48.5s11.5 19.167 11.5 24.5c0 11.333 -2.66699 19.166 -8 23.499s-16.333 6.5 -33 6.5c-17.333 0 -43 -1.33301 -77 -4c-26.667 -2.66699 -46.334 -4 -59.001 -4c-16 0 -44 2.66699 -84 8
c-38 5.33301 -64 8 -78 8c-13.333 0 -24.833 -4.16699 -34.5 -12.5s-17.334 -19 -23.001 -32s-9.66699 -27 -12 -42s-3.5 -28.833 -3.5 -41.5c0 -10.667 1.5 -20.167 4.5 -28.5s7.83301 -12.5 14.5 -12.5s12.167 2.16699 16.5 6.5s9.5 10.5 15.5 18.5c8 12 15.667 21 23 27
s17 9 29 9c10.667 0 19 -0.666992 25 -2s12 -3 18 -5c6 -2.66699 12.167 -4.66699 18.5 -6s15.833 -2 28.5 -2c2.66699 0 9.66699 0.833008 21 2.5l30 4.5c20.667 3.33301 32 5 34 5c4 0 6 -2.33301 6 -7c0 -2 -4 -6.66699 -12 -14c-6 -6.66699 -11 -12 -15 -16
c-18.667 -20.667 -36 -43.667 -52 -69s-32.333 -53.666 -49 -84.999c-28 -54 -49.167 -102.5 -63.5 -145.5s-21.5 -82.167 -21.5 -117.5c0 -8.66699 1.16699 -19.334 3.5 -32.001s6 -25.5 11 -38.5s11 -23.667 18 -32s15.167 -12.5 24.5 -12.5
c7.33301 0 14.833 2.83301 22.5 8.5s18.167 14.834 31.5 27.501c10 10 18.333 17.667 25 23l30 24c14.667 11.333 25.5 20.333 32.5 27s10.5 12.667 10.5 18z" />
    <glyph glyph-name="eight" unicode="8" horiz-adv-x="517" 
d="M295 653c-39.333 0 -73.668 -5.33398 -103.001 -16.001s-53.166 -24.667 -71.499 -42s-31.833 -36.166 -40.5 -56.499s-13 -40.166 -13 -59.499c0 -20.667 5.83301 -40.5 17.5 -59.5s27.5 -34.167 47.5 -45.5c5.33301 -2.66699 8 -6 8 -10c0 -6 -8 -13.667 -24 -23
c-30 -16.667 -53.5 -37.834 -70.5 -63.501s-25.5 -54.5 -25.5 -86.5c0 -27.333 6.16699 -53.166 18.5 -77.499s29.5 -45.833 51.5 -64.5s47.5 -33.167 76.5 -43.5s59.5 -15.5 91.5 -15.5c32.667 0 63.5 5.16699 92.5 15.5s54.5 24.833 76.5 43.5s39.167 40.167 51.5 64.5
s18.5 50.166 18.5 77.499c0 38.667 -12.167 74.834 -36.5 108.501s-56.5 60.5 -96.5 80.5c-8.66699 4.66699 -16.167 9.16699 -22.5 13.5s-9.5 7.83301 -9.5 10.5s0.666992 4 2 4c22.667 7.33301 42 22.5 58 45.5s24 46.5 24 70.5c0 15.333 -3.66699 30.833 -11 46.5
s-16.833 29.667 -28.5 42s-24.667 22.166 -39 29.499s-28.5 11 -42.5 11zM197.998 314.999c7.33301 0 20.498 -5.16699 39.498 -15.5s39 -23.5 60 -39.5s38.667 -33.5 53 -52.5s21.5 -37.5 21.5 -55.5c0 -8.66699 -2 -19 -6 -31s-10 -23.5 -18 -34.5
s-18.167 -20.167 -30.5 -27.5s-26.166 -11 -41.499 -11c-16 0 -32.667 4.66699 -50 14s-33.5 22 -48.5 38s-26.833 33.5 -35.5 52.5s-13 37.5 -13 55.5c0 33.333 8.33301 59.5 25 78.5s31.334 28.5 44.001 28.5zM231.996 596.999c25.333 0 47.668 -10.5029 67.001 -31.5029
s29 -42.833 29 -65.5c0 -17.333 -6.66699 -34.166 -20 -50.499s-24 -24.5 -32 -24.5s-18 4 -30 12s-23.833 18.167 -35.5 30.5s-21.334 25.333 -29.001 39s-11.5 25.834 -11.5 36.501c0 14.667 6.5 27.334 19.5 38.001s27.167 16 42.5 16z" />
    <glyph glyph-name="nine" unicode="9" horiz-adv-x="502" 
d="M198 192c20.667 0 42.4971 4.83301 65.4971 14.5s45.167 22.5 66.5 38.5l3 3c4.66699 3.33301 8.33398 5.83301 11.001 7.5s4.33398 2.5 5.00098 2.5c3.33301 0 5 -7.66699 5 -23c0 -27.333 -4.33301 -53 -13 -77s-20.5 -44.667 -35.5 -62s-32 -30.833 -51 -40.5
s-38.5 -14.5 -58.5 -14.5c-15.333 0 -30.666 2.16699 -45.999 6.5s-33.666 10.5 -54.999 18.5c-23.333 8.66699 -38.333 13 -45 13c-2.66699 0 -5.16699 -2.66699 -7.5 -8s-3.5 -10.333 -3.5 -15c0 -7.33301 4.83301 -14.666 14.5 -21.999s22.334 -14 38.001 -20
s33 -10.833 52 -14.5s36.833 -5.5 53.5 -5.5c41.333 0 79.666 8.5 114.999 25.5s65.666 40.667 90.999 71s44.833 65.833 58.5 106.5s20.5 84.334 20.5 131.001c0 46 -6.33301 88.667 -19 128s-30.167 73.333 -52.5 102s-48 50.667 -77 66s-59.5 23 -91.5 23
s-61.667 -6.5 -89 -19.5s-51 -30.833 -71 -53.5s-35.333 -48.334 -46 -77.001s-16 -58 -16 -88c0 -24.667 4 -49.834 12 -75.501s19.833 -49.167 35.5 -70.5s34.5 -38.5 56.5 -51.5s46.667 -19.5 74 -19.5zM271.997 294c-19.333 0 -38.667 5.66895 -58 17.002
s-36.666 26.333 -51.999 45s-27.5 38.5 -36.5 59.5s-13.5 40.167 -13.5 57.5c0 16.667 3.16699 31.667 9.5 45s14.833 24.666 25.5 33.999c18.667 16.667 37.334 25 56.001 25c23.333 0 44.666 -6.33301 63.999 -19s35.666 -29 48.999 -49s23.5 -41.333 30.5 -64
s10.5 -43.334 10.5 -62.001c0 -26 -7.5 -47.333 -22.5 -64s-35.833 -25 -62.5 -25z" />
    <glyph glyph-name="colon" unicode=":" horiz-adv-x="171" 
d="M85 421c-18 0 -33.333 -8 -46 -24s-19 -35.667 -19 -59c0 -22.667 6.33301 -42 19 -58s28 -24 46 -24s33.333 8 46 24s19 35.333 19 58c0 23.333 -6.33301 43 -19 59s-28 24 -46 24zM86 165c-18 0 -33.333 -8 -46 -24s-19 -35.667 -19 -59c0 -22.667 6.33301 -42 19 -58
s28 -24 46 -24s33.333 8 46 24s19 35.333 19 58c0 23.333 -6.33301 43 -19 59s-28 24 -46 24z" />
    <glyph glyph-name="semicolon" unicode=";" 
d="M89 421c-18 0 -33.333 -8 -46 -24s-19 -35.667 -19 -59c0 -22.667 6.33301 -42 19 -58s28 -24 46 -24s33.333 8 46 24s19 35.333 19 58c0 23.333 -6.33301 43 -19 59s-28 24 -46 24zM85 170c-18 0 -33.3311 -7.99805 -45.998 -23.998s-19 -35.667 -19 -59
c0 -24.667 6.83301 -45.334 20.5 -62.001s30.834 -25 51.501 -25v-16c0 -12.667 -2.33301 -22.5 -7 -29.5s-11 -13.5 -19 -19.5c-10 -8 -15 -15.333 -15 -22c0 -4 2.16699 -7 6.5 -9s8.83301 -3 13.5 -3c9.33301 0 19.666 4.66699 30.999 14s22.166 21.666 32.499 36.999
s18.666 32.5 24.999 51.5s9.5 37.5 9.5 55.5c0 10.667 -2.16699 22.5 -6.5 35.5s-10.5 25.333 -18.5 37s-17 21 -27 28s-20.667 10.5 -32 10.5z" />
    <glyph glyph-name="question" unicode="?" horiz-adv-x="546" 
d="M176 165c-18 0 -33.333 -8 -46 -24s-19 -35.667 -19 -59c0 -22.667 6.33301 -42 19 -58s28 -24 46 -24s33.333 8 46 24s19 35.333 19 58c0 23.333 -6.33301 43 -19 59s-28 24 -46 24zM182 242c7.33301 0 12.333 1.99902 15 5.99902s4 9.33301 4 16v10
c-0.666992 5.33301 -1 10.333 -1 15c0 14 8.33301 27 25 39s44 27.667 82 47c21.333 11.333 34.333 18.333 39 21c24.667 13.333 47.334 26.833 68.001 40.5s39.334 28.167 56.001 43.5s30.167 31.666 40.5 48.999s15.5 35.333 15.5 54c0 30.667 -9.33301 58.5 -28 83.5
s-43.167 46.167 -73.5 63.5s-62.833 30.666 -97.5 39.999s-67.334 14 -98.001 14c-24.667 0 -49.5 -2 -74.5 -6s-47.667 -9.66699 -68 -17s-36.5 -16 -48.5 -26s-18 -20.333 -18 -31c0 -14.667 1.33301 -31 4 -49s6.66699 -35.333 12 -52s11.833 -30.334 19.5 -41.001
s16.167 -16 25.5 -16c13.333 0 20 12.333 20 37c0 4.66699 -1 11.334 -3 20.001c-0.666992 4 -1 7 -1 9c0 10.667 5 21.334 15 32.001s23.5 20.167 40.5 28.5s35.667 15 56 20s40.166 7.5 59.499 7.5c15.333 0 31 -1.5 47 -4.5s31.167 -8.16699 45.5 -15.5s26 -17 35 -29
s13.5 -26.333 13.5 -43c0 -12 -6.33301 -22.833 -19 -32.5s-32.667 -22.5 -60 -38.5l-42 -24c-11.333 -7.33301 -28.333 -16.666 -51 -27.999c-20.667 -10.667 -37.334 -19.667 -50.001 -27s-24.5 -16.5 -35.5 -27.5s-19.667 -24.167 -26 -39.5s-9.5 -33.666 -9.5 -54.999
c0 -24 4.33301 -44.333 13 -61c5.33301 -10 12.333 -18 21 -24s19.334 -9 32.001 -9z" />
    <glyph glyph-name="A" unicode="A" horiz-adv-x="823" 
d="M169 6c8 0 24.3291 -1 48.9961 -3c30 -2 50.333 -3 61 -3c14 -0 24 1.33301 30 4s9 8.66699 9 18c0 8 -2.16699 13.5 -6.5 16.5s-11.166 5.5 -20.499 7.5c-18 4 -32.833 11.333 -44.5 22s-19.5 32.334 -23.5 65.001l-1 6l-7 70.5c-2 19.667 -3 38.167 -3 55.5
c0 25.333 1 50.333 3 75c52 16 107.667 24 167 24c68.667 0 125.334 -5 170.001 -15c7.33301 -36.667 16.333 -91.667 27 -165l4 -24c0 -2.66699 0.333008 -6 1 -10v-9c0 -24.667 -6.5 -43.5 -19.5 -56.5s-30.833 -25.167 -53.5 -36.5c-12 -6 -20.833 -11 -26.5 -15
s-8.5 -9 -8.5 -15c0 -7.33301 4.16699 -12.166 12.5 -14.499s19.166 -3.5 32.499 -3.5c6.66699 0 16.167 0.333008 28.5 1s27.166 1.66699 44.499 3c30.667 2.66699 50 4 58 4c7.33301 0 24 -1.33301 50 -4c30 -2.66699 50.333 -4 61 -4c14 0 24.167 1.33301 30.5 4
s9.5 8 9.5 16s-1.83301 13.833 -5.5 17.5s-10.167 7.83398 -19.5 12.501c-15.333 7.33301 -28.166 17.333 -38.499 30s-17.5 35 -21.5 67c-12.667 98 -27.834 188.5 -45.501 271.5s-41.5 159.833 -71.5 230.5c-5.33301 11.333 -8 22 -8 32c0 11.333 3.66699 19 11 23
s18 7 32 9c11.333 2 19.833 4.33301 25.5 7s8.5 7.33398 8.5 14.001c0 16 -9 24 -27 24c-10.667 0 -30 -2 -58 -6c-30 -4.66699 -50.333 -7 -61 -7c-19.333 0 -48.333 3.66699 -87 11c-38 6.66699 -66.333 10 -85 10c-26 0 -53.5 -1.16699 -82.5 -3.5
s-56.167 -5.83301 -81.5 -10.5s-46 -10.834 -62 -18.501s-24 -16.167 -24 -25.5c0 -6 1.33301 -10.667 4 -14s9 -5 19 -5s25 2.33301 45 7c20 5.33301 35.667 8 47 8h24c-20 -41.333 -38.167 -87.5 -54.5 -138.5s-30.666 -103.333 -42.999 -157
s-21.666 -105.334 -27.999 -155.001s-9.5 -93.834 -9.5 -132.501c0 -23.333 -4.66699 -39.5 -14 -48.5s-22.666 -16.833 -39.999 -23.5c-11.333 -4 -19.5 -7.83301 -24.5 -11.5s-7.5 -9.83398 -7.5 -18.501c0 -7.33301 3.83301 -12.333 11.5 -15s17.834 -4 30.501 -4
c10.667 0 30.667 1 60 3c24 2 39.667 3 47 3zM300.996 693c33.333 0 81.334 -3.33301 144.001 -10c16 -12 27.333 -28.333 34 -49c21.333 -64 41 -137 59 -219c-60 7.33301 -109.667 11 -149 11c-30.667 0 -77.334 -5 -140.001 -15l-28 -5c6 52 15.667 102.5 29 151.5
s30.333 94.167 51 135.5z" />
    <glyph glyph-name="B" unicode="B" horiz-adv-x="707" 
d="M129 138c0 -27.333 -4.33496 -46.1631 -13.002 -56.4961s-21 -18.833 -37 -25.5c-10.667 -4.66699 -18.5 -9.33398 -23.5 -14.001s-7.5 -12.334 -7.5 -23.001c0 -7.33301 3.83301 -12.333 11.5 -15s17.834 -4 30.501 -4c11.333 0 30.333 2 57 6
c23.333 2.66699 38.333 4 45 4c15.333 0 34.666 -2.66699 57.999 -8c16 -3.33301 30.833 -6 44.5 -8s29.834 -3 48.501 -3c44 0 86.5 5.66699 127.5 17s77.833 28.166 110.5 50.499s58.5 50.333 77.5 84s28.5 71.834 28.5 114.501c0 22 -3 43.5 -9 64.5
s-15.667 40.167 -29 57.5s-30.5 31 -51.5 41s-45.5 15 -73.5 15c28 20.667 49.833 43 65.5 67s23.5 44.333 23.5 61c0 73.333 -28 126.833 -84 160.5s-140 50.5 -252 50.5c-24.667 0 -51.167 -1 -79.5 -3s-56.166 -5.5 -83.499 -10.5s-49.833 -11.833 -67.5 -20.5
s-26.5 -19.334 -26.5 -32.001c0 -8.66699 3 -14.834 9 -18.501s13.333 -5.5 22 -5.5c3.33301 0 9 1.33301 17 4c12 3.33301 20.667 5 26 5c10 0 18.333 -6 25 -18s10 -29.667 10 -53v-484zM255.998 166.003l-0.00195312 190.001c9.33301 9.33301 23.833 16 43.5 20
s42.5 6 68.5 6c18.667 0 37 -1 55 -3c20.667 -2 40 -8.33301 58 -19s33.667 -24.334 47 -41.001s23.5 -35 30.5 -55s10.5 -40 10.5 -60c0 -40.667 -11.667 -69 -35 -85s-55.666 -24 -96.999 -24c-19.333 0 -49.666 3 -90.999 9c-40 5.33301 -69 8 -87 8
c-12.667 0 -19 3.33301 -19 10c0 2.66699 2 8 6 16c6.66699 12.667 10 22 10 28zM256.996 615.004c0 3.33301 -1.00098 8.66797 -3.00098 16.001c-2.66699 10 -4 17.667 -4 23c0 14 4.5 25.5 13.5 34.5s23.833 13.5 44.5 13.5c54 0 94.667 -12.667 122 -38
s41 -58.333 41 -99c0 -24 -5 -44.667 -15 -62s-23.167 -31.333 -39.5 -42s-34.166 -18.334 -53.499 -23.001s-39 -7 -59 -7s-35.667 2 -47 6v178z" />
    <glyph glyph-name="C" unicode="C" horiz-adv-x="623" 
d="M603 190c0 6.66699 -2.16211 12.666 -6.49512 17.999s-10.833 8 -19.5 8c-4.66699 0 -15.667 -8.66699 -33 -26c-25.333 -24.667 -50 -44.834 -74 -60.501s-52 -23.5 -84 -23.5c-32.667 0 -64.667 10.167 -96 30.5s-59.5 47.833 -84.5 82.5s-44.5 73.667 -58.5 117
s-21 87 -21 131c0 36 6.66699 67.667 20 95s30.666 49.5 51.999 66.5s43.5 29.5 66.5 37.5s44.167 12 63.5 12c28 0 51.167 -3 69.5 -9s32.666 -13.667 42.999 -23s17.833 -19 22.5 -29s9 -21.667 13 -35c4 -12 7.5 -20.5 10.5 -25.5s7.5 -7.5 13.5 -7.5
c8.66699 0 16 5.33301 22 16s10.5 23.5 13.5 38.5s5.16699 29.667 6.5 44s2 25.833 2 34.5c0 10.667 -0.5 20.834 -1.5 30.501s-3.5 19 -7.5 28s-10.167 16.167 -18.5 21.5s-18.833 8 -31.5 8c-17.333 0 -39 1 -65 3c-30 2.66699 -55.333 4 -76 4
c-36 0 -73.333 -10.333 -112 -31s-74 -49.167 -106 -85.5s-57.667 -78.333 -77 -126s-29 -97.834 -29 -150.501c0 -58 8 -111.167 24 -159.5s38.667 -90.166 68 -125.499s63.666 -62.5 102.999 -81.5s82.333 -28.5 129 -28.5c26.667 0 55.167 6.83301 85.5 20.5
s58.666 31.334 84.999 53.001s47.666 44 63.999 67s24.5 43.167 24.5 60.5z" />
    <glyph glyph-name="D" unicode="D" horiz-adv-x="731" 
d="M128 138c0 -20.667 -5.49609 -37 -16.4961 -49s-26.5 -24 -46.5 -36c-11.333 -7.33301 -19.5 -13.333 -24.5 -18s-7.5 -9.66699 -7.5 -15c0 -8 2.66699 -13.333 8 -16s13.666 -4 24.999 -4c7.33301 0 16.666 0.5 27.999 1.5s25.333 2.5 42 4.5c30 2.66699 48.333 4 55 4
c15.333 0 34.666 -2.66699 57.999 -8c16 -3.33301 30.833 -6 44.5 -8s29.834 -3 48.501 -3c52 0 100.667 11 146 33s84.666 51.833 117.999 89.5s59.166 79 77.499 124s27.5 89.833 27.5 134.5c0 53.333 -6.5 103.333 -19.5 150s-35.667 89 -68 127
s-77.166 68.333 -134.499 91s-128.333 34 -213 34c-22.667 0 -48.5 -1.16699 -77.5 -3.5s-57.167 -6.33301 -84.5 -12s-49.833 -13.167 -67.5 -22.5s-26.5 -20.333 -26.5 -33c0 -8.66699 1.66699 -14.167 5 -16.5s9 -3.5 17 -3.5c3.33301 0 8 1 14 3
c9.33301 2.66699 16.666 4 21.999 4c11.333 0 22.5 -5.83301 33.5 -17.5s16.5 -28.5 16.5 -50.5v-484zM252.004 615c0 3.33301 -0.333984 8.66602 -1.00098 15.999c-1.33301 10.667 -2 18.334 -2 23.001c0 14 4.5 25.5 13.5 34.5s23.833 13.5 44.5 13.5
c40 0 76.833 -9.16699 110.5 -27.5s62.5 -43.166 86.5 -74.499s42.5 -66.5 55.5 -105.5s19.5 -78.5 19.5 -118.5c0 -26.667 -2 -55.5 -6 -86.5s-11.167 -61.333 -21.5 -91s-25 -54.334 -44 -74.001s-42.833 -29.5 -71.5 -29.5c-19.333 0 -49.666 3 -90.999 9
c-40 5.33301 -69 8 -87 8c-6.66699 0 -11.167 0.833008 -13.5 2.5s-3.5 4.16699 -3.5 7.5c0 1.33301 1 3.33301 3 6c2 4 3.83301 8.33301 5.5 13s2.5 11.667 2.5 21v453z" />
    <glyph glyph-name="E" unicode="E" horiz-adv-x="682" 
d="M560 554c19.333 0 33.834 11.8359 43.501 35.5029s14.5 55.5 14.5 95.5c0 12.667 -1.16699 23.834 -3.5 33.501s-6.83301 18.334 -13.5 26.001s-16.667 13.834 -30 18.501s-30.666 7 -51.999 7c-38 0 -93.333 -3.66699 -166 -11c-74 -8 -130.667 -12 -170 -12
c-16.667 0 -43.667 2.33301 -81 7c-29.333 4 -49 6 -59 6c-8.66699 0 -14.667 -1.5 -18 -4.5s-5 -8.83301 -5 -17.5c0 -10.667 3.16699 -18.334 9.5 -23.001s16.5 -9.33398 30.5 -14.001c20.667 -6.66699 36.5 -15.167 47.5 -25.5s16.5 -28.166 16.5 -53.499v-484
c0 -27.333 -4.33301 -46.166 -13 -56.499s-21 -18.833 -37 -25.5c-10.667 -4.66699 -18.5 -9.33398 -23.5 -14.001s-7.5 -12.334 -7.5 -23.001c0 -7.33301 3.83301 -12.333 11.5 -15s17.834 -4 30.501 -4c10.667 0 29.667 2.66699 57 8c22.667 4.66699 37.667 7 45 7
c26 0 53 -1.16699 81 -3.5s60.333 -5.5 97 -9.5c65.333 -6.66699 111.666 -10 138.999 -10c2 0 3 0.333008 3 1c30 0 54.667 2.66699 74 8s35 14.333 47 27s20.667 30.5 26 53.5s8 53.167 8 90.5c0 21.333 -2 40.166 -6 56.499s-11.667 24.5 -23 24.5
c-10 0 -17.5 -3.66699 -22.5 -11s-10.167 -19.333 -15.5 -36c-4.66699 -15.333 -9.16699 -27.833 -13.5 -37.5s-11.166 -19.334 -20.499 -29.001s-22.166 -17.5 -38.499 -23.5s-36.833 -9 -61.5 -9c-14 0 -35.667 2.33301 -65 7s-51 7 -65 7
c-9.33301 0 -20.333 -0.833008 -33 -2.5s-26.667 -3.83398 -42 -6.50098l-15 -3c0.666992 2 1.33398 4.66699 2.00098 8c5.33301 15.333 8 30.666 8 45.999v212c37.333 16.667 69.333 25 96 25c22.667 0 41 -2.83301 55 -8.5s24.667 -13 32 -22s12.166 -17.833 14.499 -26.5
s4.5 -19.334 6.5 -32.001c2 -14.667 5 -22 9 -22c20.667 0 35.667 8.5 45 25.5s14 46.5 14 88.5c0 13.333 -1 27 -3 41s-5.33301 27 -10 39s-10.834 21.833 -18.501 29.5s-16.834 11.5 -27.501 11.5c-4.66699 0 -8 -1.66699 -10 -5s-4 -8.66602 -6 -15.999
c-2.66699 -12.667 -7.16699 -22.667 -13.5 -30s-18.5 -11 -36.5 -11c-61.333 0 -110.333 -3 -147 -9v162c0 18 2.66699 32.667 8 44s12.666 21 21.999 29c18.667 1.33301 37.5 2.5 56.5 3.5s34.167 1.5 45.5 1.5c34.667 0 62.667 -3.5 84 -10.5s37.166 -15.833 47.499 -26.5
s17.333 -21.5 21 -32.5s6.5 -23.833 8.5 -38.5c1.33301 -11.333 3 -19.333 5 -24s5.66699 -7 11 -7z" />
    <glyph glyph-name="F" unicode="F" horiz-adv-x="638" 
d="M560 554c19.333 0 33.8369 11.833 43.5039 35.5s14.5 55.5 14.5 95.5c0 12.667 -1.16699 23.834 -3.5 33.501s-6.83301 18.334 -13.5 26.001s-16.667 13.834 -30 18.501s-30.666 7 -51.999 7c-38 0 -93.333 -3.66699 -166 -11c-74 -8 -130.667 -12 -170 -12
c-16.667 0 -43.667 2.33301 -81 7c-29.333 4 -49 6 -59 6c-8.66699 0 -14.667 -1.5 -18 -4.5s-5 -8.83301 -5 -17.5c0 -10.667 3.16699 -18.334 9.5 -23.001s16.5 -9.33398 30.5 -14.001c20.667 -6.66699 36.5 -15.167 47.5 -25.5s16.5 -28.166 16.5 -53.499v-484
c0 -27.333 -4.33301 -46.166 -13 -56.499s-21 -18.833 -37 -25.5c-10.667 -4.66699 -18.5 -9.33398 -23.5 -14.001s-7.5 -12.334 -7.5 -23.001c0 -7.33301 3.83301 -12.333 11.5 -15s17.834 -4 30.501 -4c10.667 0 30.667 1 60 3c24 2 39.667 3 47 3
c5.33301 0 13.166 -0.166992 23.499 -0.5s28.5 -1.16602 54.5 -2.49902c34 -1.33301 56.5 -2.16602 67.5 -2.49902s20.167 -0.5 27.5 -0.5c14 0 25.333 2 34 6s13 10.667 13 20c0 8 -4 13.667 -12 17s-21.667 6.66602 -41 9.99902c-16 2.66699 -29.5 5.5 -40.5 8.5
s-21.833 7.66699 -32.5 14s-19.167 15.166 -25.5 26.499s-9.5 25.666 -9.5 42.999v230c37.333 16.667 69.333 25 96 25c22.667 0 41 -2.83301 55 -8.5s24.667 -13 32 -22s12.166 -17.833 14.499 -26.5s4.5 -19.334 6.5 -32.001c2 -14.667 5 -22 9 -22
c20.667 0 35.667 8.5 45 25.5s14 46.5 14 88.5c0 13.333 -1 27 -3 41s-5.33301 27 -10 39s-10.834 21.833 -18.501 29.5s-16.834 11.5 -27.501 11.5c-4.66699 0 -8 -1.66699 -10 -5s-4 -8.66602 -6 -15.999c-2.66699 -12.667 -7.16699 -22.667 -13.5 -30
s-18.5 -11 -36.5 -11c-61.333 0 -110.333 -3 -147 -9v162c0 18 2.66699 32.667 8 44s12.666 21 21.999 29c18.667 1.33301 37.5 2.5 56.5 3.5s34.167 1.5 45.5 1.5c34.667 0 62.667 -3.5 84 -10.5s37.166 -15.833 47.499 -26.5s17.333 -21.5 21 -32.5s6.5 -23.833 8.5 -38.5
c1.33301 -11.333 3 -19.333 5 -24s5.66699 -7 11 -7z" />
    <glyph glyph-name="G" unicode="G" horiz-adv-x="668" 
d="M611 364c0 13.333 1.99805 23.3379 5.99805 30.0049s9.66699 13.667 17 21c9.33301 8.66699 14 17 14 25c0 6 -2 11.833 -6 17.5s-11 8.5 -21 8.5c-13.333 0 -33.333 -2 -60 -6s-46.667 -6 -60 -6c-15.333 0 -38 2.66699 -68 8c-30 4.66699 -52.333 7 -67 7
c-16.667 0 -30.667 -2.33301 -42 -7s-17 -14.334 -17 -29.001c0 -8 4 -13 12 -15s21.333 -3.33301 40 -4c16.667 -0.666992 31.5 -1.83398 44.5 -3.50098s25.167 -5.66699 36.5 -12s20.666 -16.166 27.999 -29.499s11 -31 11 -53v-140c0 -22.667 -8 -39.334 -24 -50.001
s-36 -16 -60 -16c-32.667 0 -64.667 10.167 -96 30.5s-59.5 47.833 -84.5 82.5s-44.5 73.667 -58.5 117s-21 87 -21 131c0 36 6.66699 67.667 20 95s30.666 49.5 51.999 66.5s43.5 29.5 66.5 37.5s44.167 12 63.5 12c32.667 0 59.334 -3.83301 80.001 -11.5
s36.334 -17.334 47.001 -29.001s18 -23.167 22 -34.5s7.66699 -24.666 11 -39.999c2.66699 -16 6.33398 -24 11.001 -24c10 0 18.833 5.33301 26.5 16s13.834 23.5 18.501 38.5s8.16699 29.833 10.5 44.5s3.5 25.667 3.5 33c0 9.33301 -1.33301 19.666 -4 30.999
s-6.83398 22.166 -12.501 32.499s-13.167 18.833 -22.5 25.5s-20.666 10 -33.999 10c-17.333 0 -39 1.66699 -65 5c-29.333 4 -54.333 6 -75 6c-36 0 -73.667 -10.667 -113 -32s-75.833 -50.833 -109.5 -88.5s-60.667 -80.834 -81 -129.501s-30.5 -99 -30.5 -151
c0 -57.333 9 -110 27 -158s42.833 -89.5 74.5 -124.5s67.5 -61.833 107.5 -80.5s81.333 -28 124 -28c26 0 54 6.83301 84 20.5s58.333 31.5 85 53.5s48.167 45 64.5 69s24.5 45 24.5 63v165z" />
    <glyph glyph-name="H" unicode="H" horiz-adv-x="794" 
d="M625 6c8 0 24.3242 -0.990234 48.9912 -2.99023c30 -2 50.333 -3 61 -3c14 0 24 1.33301 30 4s9 8.66699 9 18c0 8 -2.33301 13.833 -7 17.5s-12 7.16699 -22 10.5c-9.33301 3.33301 -17.166 6.66602 -23.499 9.99902s-12.333 8.16602 -18 14.499
s-10.334 15.333 -14.001 27s-5.5 26.167 -5.5 43.5v470c0 26 4.83301 45 14.5 57s22.834 23 39.501 33c10 5.33301 17.167 10.166 21.5 14.499s6.5 9.83301 6.5 16.5c0 16 -9 24 -27 24c-10.667 0 -30 -2 -58 -6c-30 -4.66699 -50.333 -7 -61 -7
c-11.333 0 -23.666 0.666992 -36.999 2s-28.666 3 -45.999 5c-30 4 -50.333 6 -61 6c-8.66699 0 -14.667 -1.5 -18 -4.5s-5 -8.83301 -5 -17.5c0 -10.667 3.16699 -18.334 9.5 -23.001s16.5 -9.33398 30.5 -14.001c20.667 -6.66699 36.5 -15.167 47.5 -25.5
s16.5 -28.166 16.5 -53.499v-195c-45.333 5.33301 -95.666 8 -150.999 8c-57.333 0 -109 -3.66699 -155 -11v191c0 26 4.83301 45 14.5 57s22.834 23 39.501 33c10 5.33301 17.167 10.166 21.5 14.499s6.5 9.83301 6.5 16.5c0 16 -9 24 -27 24c-10.667 0 -30 -2 -58 -6
c-30 -4.66699 -50.333 -7 -61 -7c-11.333 0 -23.666 0.666992 -36.999 2s-28.666 3 -45.999 5c-30 4 -50.333 6 -61 6c-8.66699 0 -14.667 -1.5 -18 -4.5s-5 -8.83301 -5 -17.5c0 -10.667 3.16699 -18.334 9.5 -23.001s16.5 -9.33398 30.5 -14.001
c20.667 -6.66699 36.5 -15.167 47.5 -25.5s16.5 -28.166 16.5 -53.499v-484c0 -27.333 -4.33301 -46.166 -13 -56.499s-21 -18.833 -37 -25.5c-10.667 -4.66699 -18.5 -9.33398 -23.5 -14.001s-7.5 -12.334 -7.5 -23.001c0 -7.33301 3.83301 -12.333 11.5 -15
s17.834 -4 30.501 -4c10.667 0 30.667 1 60 3c24 2 39.667 3 47 3c8 0 24.333 -1 49 -3c30 -2 50.333 -3 61 -3c14 0 24 1.33301 30 4s9 8.66699 9 18c0 8 -2.33301 13.833 -7 17.5s-12 7.16699 -22 10.5c-9.33301 3.33301 -17.166 6.66602 -23.499 9.99902
s-12.333 8.16602 -18 14.499s-10.334 15.333 -14.001 27s-5.5 26.167 -5.5 43.5v206c51.333 9.33301 106 14 164 14c50 0 97.333 -3.33301 142 -10v-217c0 -27.333 -4.33301 -46.166 -13 -56.499s-21 -18.833 -37 -25.5c-10.667 -4.66699 -18.5 -9.33398 -23.5 -14.001
s-7.5 -12.334 -7.5 -23.001c0 -7.33301 3.83301 -12.333 11.5 -15s17.834 -4 30.501 -4c10.667 0 30.667 1 60 3c24 2 39.667 3 47 3z" />
    <glyph glyph-name="I" unicode="I" horiz-adv-x="361" 
d="M192 6c8 0 24.3291 -0.995117 48.9961 -2.99512c30 -2 50.333 -3 61 -3c14 0 24 1.33301 30 4s9 8.66699 9 18c0 8 -2.33301 13.833 -7 17.5s-12 7.16699 -22 10.5c-9.33301 3.33301 -17.166 6.66602 -23.499 9.99902s-12.333 8.16602 -18 14.499
s-10.334 15.333 -14.001 27s-5.5 26.167 -5.5 43.5v470c0 26 4.83301 45 14.5 57s22.834 23 39.501 33c10 5.33301 17.167 10.166 21.5 14.499s6.5 9.83301 6.5 16.5c0 16 -9 24 -27 24c-10.667 0 -30 -2 -58 -6c-30 -4.66699 -50.333 -7 -61 -7
c-11.333 0 -23.666 0.666992 -36.999 2s-28.666 3 -45.999 5c-30 4 -50.333 6 -61 6c-8.66699 0 -14.667 -1.5 -18 -4.5s-5 -8.83301 -5 -17.5c0 -10.667 3.16699 -18.334 9.5 -23.001s16.5 -9.33398 30.5 -14.001c20.667 -6.66699 36.5 -15.167 47.5 -25.5
s16.5 -28.166 16.5 -53.499v-484c0 -27.333 -4.33301 -46.166 -13 -56.499s-21 -18.833 -37 -25.5c-10.667 -4.66699 -18.5 -9.33398 -23.5 -14.001s-7.5 -12.334 -7.5 -23.001c0 -7.33301 3.83301 -12.333 11.5 -15s17.834 -4 30.501 -4c10.667 0 30.667 1 60 3
c24 2 39.667 3 47 3z" />
    <glyph glyph-name="J" unicode="J" horiz-adv-x="496" 
d="M20 -75c0 -22 1.33105 -38.501 3.99805 -49.501s8 -19.5 16 -25.5s19.333 -9.83301 34 -11.5s36.334 -2.5 65.001 -2.5c38 0 74.667 7.16699 110 21.5s64.333 35.166 87 62.499c19.333 22.667 33.333 50.167 42 82.5s13 72.833 13 121.5v493c0 26 5 45 15 57
s23.667 22.667 41 32c10 5.33301 17.333 10.166 22 14.499s7 9.83301 7 16.5c0 8 -2.83301 14.167 -8.5 18.5s-12.834 6.5 -21.501 6.5c-10.667 0 -30 -2 -58 -6c-30 -4.66699 -50.333 -7 -61 -7c-16 0 -41.667 2 -77 6c-27.333 2.66699 -46.333 4 -57 4
c-10 0 -16.667 -1 -20 -3s-5 -7 -5 -15c0 -10.667 3 -18.334 9 -23.001s15.333 -9.33398 28 -14.001c19.333 -7.33301 34 -16.166 44 -26.499s15 -28.166 15 -53.499v-473c0 -41.333 -0.666992 -75.166 -2 -101.499s-4.33301 -49.5 -9 -69.5s-12.167 -35.667 -22.5 -47
s-24.166 -17 -41.499 -17c-20 0 -36 2.66699 -48 8s-20.667 12.333 -26 21s-8.66602 17.5 -9.99902 26.5s-2 20.5 -2 34.5c0 14.667 -1.16699 25.5 -3.5 32.5s-8.16602 10.5 -17.499 10.5c-12 0 -22.167 -4.5 -30.5 -13.5s-14.833 -20.167 -19.5 -33.5
s-7.83398 -26.666 -9.50098 -39.999s-2.5 -25.666 -2.5 -36.999z" />
    <glyph glyph-name="K" unicode="K" horiz-adv-x="754" 
d="M192 6c8 0 24.3311 -0.992188 48.998 -2.99219c30 -2 50.333 -3 61 -3c14 0 24 1.33301 30 4s9 8.66699 9 18c0 8 -2.33301 13.833 -7 17.5s-12 7.16699 -22 10.5c-9.33301 3.33301 -17.166 6.66602 -23.499 9.99902s-12.333 8.16602 -18 14.499
s-10.334 15.333 -14.001 27s-5.5 26.167 -5.5 43.5v209c34 -4.66699 63.167 -15 87.5 -31s44.5 -35.167 60.5 -57.5s29 -45 39 -68s21 -52.167 33 -87.5l2 -6c0.666992 -2.66699 2 -6.33398 4 -11.001c14 -40.667 27.5 -70.334 40.5 -89.001s33.833 -28 62.5 -28
c18 0 36 1 54 3s34.5 5.33301 49.5 10s27.167 11.167 36.5 19.5s14 18.5 14 30.5c0 7.33301 -2 12.333 -6 15s-10 4 -18 4c-2.66699 0 -8.33398 -0.333008 -17.001 -1c-7.33301 -0.666992 -13.333 -1 -18 -1c-16.667 0 -27.667 5 -33 15c-10 19.333 -24 49.333 -42 90
c-27.333 64.667 -54 117.167 -80 157.5s-62.667 75.166 -110 104.499c-4.66699 2.66699 -7 5.66699 -7 9c0 2 1.5 4.5 4.5 7.5s7.5 7.16699 13.5 12.5l5 4c12.667 11.333 26.667 25.166 42 41.499s30.666 33.833 45.999 52.5s28.833 36.667 40.5 54s20.5 32.666 26.5 45.999
c7.33301 16 15.333 28.333 24 37s18.667 16.334 30 23.001c12 8 18 15.333 18 22c0 7.33301 -1.66699 13.166 -5 17.499s-9 6.5 -17 6.5c-11.333 0 -29 -1.66699 -53 -5s-41.667 -5 -53 -5c-12 0 -30.333 1.66699 -55 5s-43 5 -55 5c-9.33301 0 -14 -7.66699 -14 -23
c0 -7.33301 2 -13.166 6 -17.499s10.333 -9.16602 19 -14.499c10.667 -6.66699 18.834 -13.5 24.501 -20.5s8.5 -17.167 8.5 -30.5c0 -18 -5.33301 -38 -16 -60s-25.667 -43.333 -45 -64s-41.666 -39 -66.999 -55s-52 -27.667 -80 -35v179c0 26 4.83301 45 14.5 57
s22.834 23 39.501 33c10 5.33301 17.167 10.166 21.5 14.499s6.5 9.83301 6.5 16.5c0 16 -9 24 -27 24c-10 0 -29.333 -1 -58 -3c-29.333 -2.66699 -49.666 -4 -60.999 -4c-16.667 0 -44.334 1.33301 -83.001 4c-30.667 2 -51 3 -61 3c-8.66699 0 -14.667 -1.5 -18 -4.5
s-5 -8.83301 -5 -17.5c0 -10.667 3.16699 -18.334 9.5 -23.001s16.5 -9.33398 30.5 -14.001c20.667 -6.66699 36.5 -15.167 47.5 -25.5s16.5 -28.166 16.5 -53.499v-484c0 -27.333 -4.33301 -46.166 -13 -56.499s-21 -18.833 -37 -25.5
c-10.667 -4.66699 -18.5 -9.33398 -23.5 -14.001s-7.5 -12.334 -7.5 -23.001c0 -7.33301 3.83301 -12.333 11.5 -15s17.834 -4 30.501 -4c10.667 0 30.667 1 60 3c24 2 39.667 3 47 3z" />
    <glyph glyph-name="L" unicode="L" horiz-adv-x="635" 
d="M183 748c-16.667 0 -43.6641 2.33203 -80.9971 6.99902c-29.333 4 -49 6 -59 6c-8.66699 0 -14.667 -1.5 -18 -4.5s-5 -8.83301 -5 -17.5c0 -10 3 -17 9 -21s15.667 -8 29 -12c21.333 -5.33301 37.666 -13.166 48.999 -23.499s17 -30.166 17 -59.499v-462
c0 -26.667 -5.16699 -46.5 -15.5 -59.5s-25.166 -24.833 -44.499 -35.5c-13.333 -7.33301 -23 -14 -29 -20s-9 -14.333 -9 -25c0 -14 9.66699 -21 29 -21c7.33301 0 16.333 0.666992 27 2s26.334 3.66602 47.001 6.99902c21.333 3.33301 35.166 5.33301 41.499 6
s11.833 1 16.5 1c26 0 52 -1.33301 78 -4s58.667 -7 98 -13c64.667 -9.33301 110 -14 136 -14c24 0 43.667 4.66699 59 14s27.166 22.166 35.499 38.499s14 35.333 17 57s4.5 46.834 4.5 75.501c0 18.667 -2.66699 35.167 -8 49.5s-14 21.5 -26 21.5
c-11.333 0 -20 -4.33301 -26 -13s-12 -22.334 -18 -41.001c-4.66699 -13.333 -9 -24.333 -13 -33s-9.33301 -17 -16 -25s-15.334 -14.5 -26.001 -19.5s-23.667 -7.5 -39 -7.5c-10.667 0 -22.5 1 -35.5 3s-28.833 4.66699 -47.5 8c-32 5.33301 -53 8 -63 8
c-14 0 -26.833 -0.333008 -38.5 -1s-19.5 -1.66699 -23.5 -3c0.666992 2 2 5.33301 4 10c8 18.667 12 35 12 49v440c0 18.667 3 34 9 46s14 21.167 24 27.5s20 10.833 30 13.5s23 5.33398 39 8.00098c18 3.33301 31 6.66602 39 9.99902s12 9.33301 12 18
s-4.5 14.834 -13.5 18.501s-21.833 5.5 -38.5 5.5s-46.334 -2.66699 -89.001 -8c-39.333 -4.66699 -66 -7 -80 -7z" />
    <glyph glyph-name="M" unicode="M" horiz-adv-x="944" 
d="M254 564c5.33301 0 10.3203 -3.3291 14.9873 -9.99609c24.667 -34.667 46 -80.5 64 -137.5s35.333 -123.5 52 -199.5c3.33301 -14.667 7 -33.667 11 -57c9.33301 -44.667 17.5 -76.667 24.5 -96s17.5 -29 31.5 -29c16.667 0 30.334 16 41.001 48
s21.334 78.667 32.001 140c8.66699 52 21.334 106.833 38.001 164.5s33.334 108.167 50.001 151.5c2 4.66699 4.33301 8.83398 7 12.501s5.33398 5.5 8.00098 5.5c4 0 7.33301 -4.33301 10 -13c16 -50.667 27.833 -106.834 35.5 -168.501s12.5 -129.167 14.5 -202.5
c0 -21.333 -1.5 -39.166 -4.5 -53.499s-7.16699 -25.5 -12.5 -33.5s-10.666 -14.167 -15.999 -18.5s-12 -8.5 -20 -12.5c-9.33301 -4.66699 -16 -9.33398 -20 -14.001s-6 -12 -6 -22c0 -7.33301 2.5 -12.333 7.5 -15s12.167 -4 21.5 -4c10.667 0 29 0.666992 55 2
c30.667 2 52.334 3 65.001 3c14.667 0 34.667 -1 60 -3c23.333 -1.33301 40.666 -2 51.999 -2c12 0 24 1.5 36 4.5s18 8.16699 18 15.5c0 8.66699 -3.5 15.5 -10.5 20.5s-17.5 10.833 -31.5 17.5c-16 6.66699 -28.5 13.5 -37.5 20.5s-13.5 16.5 -13.5 28.5
c-2 86 -8.66699 172.333 -20 259s-27 182 -47 286c0 1.33301 -0.333008 3.66602 -1 6.99902v6c0 13.333 4 23.166 12 29.499s20 12.5 36 18.5c14.667 4.66699 25.5 9.66699 32.5 15s10.5 13.333 10.5 24c0 4.66699 -3.16699 8.33398 -9.5 11.001s-13.5 4 -21.5 4
c-8.66699 0 -22.667 -1.33301 -42 -4c-15.333 -2 -26.666 -3 -33.999 -3s-17.666 0.666992 -30.999 2c-15.333 1.33301 -27.333 2 -36 2c-16 0 -29.833 -7.33301 -41.5 -22s-25.834 -38 -42.501 -70c-20.667 -40 -40.5 -85.5 -59.5 -136.5s-33.5 -97.833 -43.5 -140.5
c-3.33301 -12.667 -6.66602 -19 -9.99902 -19s-6.33301 5.33301 -9 16c-10 35.333 -22.5 74.666 -37.5 117.999s-30.667 84 -47 122s-32.666 69.5 -48.999 94.5s-30.833 37.5 -43.5 37.5c-13.333 0 -31.666 -1.33301 -54.999 -4s-41.666 -4 -54.999 -4
c-8.66699 0 -20 2 -34 6c-14.667 3.33301 -26.334 5 -35.001 5c-7.33301 0 -13.833 -2.83301 -19.5 -8.5s-8.5 -11.5 -8.5 -17.5c0 -8 3.83301 -14.5 11.5 -19.5s19.167 -10.833 34.5 -17.5c18 -7.33301 31.667 -14.333 41 -21s14 -15.667 14 -27l-1 -3v-4
c-5.33301 -31.333 -13.333 -74 -24 -128c-16.667 -85.333 -29.5 -156.833 -38.5 -214.5s-15.167 -117.5 -18.5 -179.5c-0.666992 -16 -6 -29 -16 -39s-23.333 -20.333 -40 -31c-11.333 -6.66699 -19.666 -12.334 -24.999 -17.001s-8 -10 -8 -16
c0 -6.66699 3.5 -12.334 10.5 -17.001s14.5 -7 22.5 -7c11.333 0 29.666 1.66699 54.999 5c24.667 2.66699 42.334 4 53.001 4c14 0 34 -1.33301 60 -4c27.333 -3.33301 48.333 -5 63 -5c8.66699 0 15.834 2.5 21.501 7.5s8.5 11.167 8.5 18.5c0 6 -2 10.667 -6 14
s-10.333 7.66602 -19 12.999c-19.333 10 -35 22.833 -47 38.5s-18.667 40.834 -20 75.501v12c-1.33301 39.333 -2 67.666 -2 84.999c0 52.667 1.83301 96.667 5.5 132s8.83398 73.333 15.501 114c4 22.667 6.33301 37.334 7 44.001c1.33301 6.66699 3.33301 10 6 10z" />
    <glyph glyph-name="N" unicode="N" horiz-adv-x="704" 
d="M610 0c12.667 0 21.0059 2.17285 25.0059 6.50586s6 12.833 6 25.5c0 5.33301 -0.333008 16 -1 32c-2 30.667 -3 58 -3 82v470c0 18.667 2.5 33.5 7.5 44.5s12.167 22.833 21.5 35.5c6 8.66699 10.5 15.834 13.5 21.501s4.5 12.167 4.5 19.5c0 14.667 -7.33301 22 -22 22
c-10.667 0 -22.334 -1.33301 -35.001 -4c-14.667 -2.66699 -27.334 -4 -38.001 -4c-15.333 0 -33.333 1.66699 -54 5c-16 2 -29 3 -39 3c-10.667 0 -18.667 -1.33301 -24 -4s-8 -8 -8 -16c0 -5.33301 1.16699 -9.33301 3.5 -12s6.83301 -6.33398 13.5 -11.001
c10 -6 19.5 -12.833 28.5 -20.5s19.5 -18.167 31.5 -31.5c8.66699 -10 15.667 -22.833 21 -38.5s9 -32.834 11 -51.501s3.33301 -37.167 4 -55.5s1 -40.833 1 -67.5c0 -38.667 -1.66699 -94.667 -5 -168l-2 -42c-27.333 57.333 -58 116.166 -92 176.499
s-68.667 116.833 -104 169.5s-68 95 -98 127s-54.333 48 -73 48c-6.66699 0 -18 -1.66699 -34 -5c-16 -4 -27.333 -6 -34 -6c-8 0 -18.667 1.33301 -32 4c-16 3.33301 -30 5 -42 5c-10.667 0 -20.334 -2.16699 -29.001 -6.5s-13 -10.5 -13 -18.5
c0 -6.66699 2.66699 -11.834 8 -15.501s14 -7.83398 26 -12.501c21.333 -8.66699 38.166 -18.834 50.499 -30.501s18.5 -31.167 18.5 -58.5l-15 -482c-0.666992 -27.333 -3.16699 -46.333 -7.5 -57s-10.166 -19.334 -17.499 -26.001
c-5.33301 -4.66699 -9.16602 -9.5 -11.499 -14.5s-3.5 -12.833 -3.5 -23.5c0 -6.66699 2.5 -10.834 7.5 -12.501s14.5 -2.5 28.5 -2.5c11.333 0 29.666 1.33301 54.999 4c21.333 2 35.333 3 42 3c8 0 21.667 -1 41 -3c21.333 -2.66699 37.333 -4 48 -4
c12 0 20.167 1.83301 24.5 5.5s6.5 10.5 6.5 20.5c0 8 -2.5 14.333 -7.5 19s-13.5 10 -25.5 16c-20.667 10.667 -37.334 23.334 -50.001 38.001s-20.334 38 -23.001 70c-6 70.667 -10.5 137.667 -13.5 201s-4.5 133.333 -4.5 210c44 -41.333 83.333 -88.333 118 -141
s75.667 -122 123 -208l73 -128.5c18 -31 37.667 -61.5 59 -91.5v3c5.33301 -9.33301 18.666 -14 39.999 -14z" />
    <glyph glyph-name="O" unicode="O" horiz-adv-x="688" 
d="M344 779c-36 0 -73.1689 -10.3291 -111.502 -30.9961s-73.666 -49.334 -105.999 -86.001s-58.166 -78.834 -77.499 -126.501s-29 -97.834 -29 -150.501c0 -54.667 7.16699 -105.834 21.5 -153.501s35.5 -89.5 63.5 -125.5s62.167 -64.167 102.5 -84.5
s85.833 -30.5 136.5 -30.5c34 0 69.833 10.333 107.5 31s73 49.334 106 86.001s59.667 79 80 127s30.5 98 30.5 150c0 53.333 -8.33301 104 -25 152s-40 90.167 -70 126.5s-64.667 64.666 -104 84.999s-81 30.5 -125 30.5zM298.998 662.004
c34.667 0 67.835 -11.5 99.502 -34.5s59.667 -53.5 84 -91.5s43.166 -78.667 56.499 -122s20 -84 20 -122c0 -30 -6 -56.667 -18 -80s-27.333 -42.666 -46 -57.999s-37.834 -26.833 -57.501 -34.5s-36.834 -11.5 -51.501 -11.5c-36.667 0 -70.667 10 -102 30
s-58.5 47.167 -81.5 81.5s-40.833 73.166 -53.5 116.499s-19 87.333 -19 132c0 36.667 5.16699 67.667 15.5 93s23.833 45.333 40.5 60s34.834 25.167 54.501 31.5s39.167 9.5 58.5 9.5z" />
    <glyph glyph-name="P" unicode="P" horiz-adv-x="684" 
d="M117 622l-0.000976562 -483.996c0 -27.333 -4.33301 -46.166 -13 -56.499s-21 -18.833 -37 -25.5c-10.667 -4.66699 -18.5 -9.33398 -23.5 -14.001s-7.5 -12.334 -7.5 -23.001c0 -7.33301 3.83301 -12.333 11.5 -15s17.834 -4 30.501 -4c10.667 0 30.667 1 60 3
c24 2 39.667 3 47 3c5.33301 0 13.166 -0.166992 23.499 -0.5s28.5 -1.16602 54.5 -2.49902c34 -1.33301 56.5 -2.16602 67.5 -2.49902s20.167 -0.5 27.5 -0.5c14 0 25.333 2 34 6s13 10.667 13 20c0 8 -4 13.667 -12 17s-21.667 6.66602 -41 9.99902
c-16 2.66699 -29.5 5.5 -40.5 8.5s-21.833 7.66699 -32.5 14s-19.167 15.166 -25.5 26.499s-9.5 25.666 -9.5 42.999v211c63.333 0 120.166 3.5 170.499 10.5s94.333 18.667 132 35s66.667 38 87 65s30.5 59.833 30.5 98.5c0 36 -10.167 67.333 -30.5 94
s-48.666 48.5 -84.999 65.5s-78.5 29.5 -126.5 37.5s-100.333 12 -157 12c-24.667 0 -50.667 -1 -78 -3s-53.666 -5.33301 -78.999 -10s-46.333 -11.334 -63 -20.001s-25 -19.334 -25 -32.001c0 -16.667 6.33301 -25 19 -25c3.33301 0 9 1.33301 17 4
c12 3.33301 20.667 5 26 5c10.667 0 19.167 -5.16699 25.5 -15.5s9.5 -28.833 9.5 -55.5zM243.999 615.004c0 38.667 6.66699 64.501 20 77.501s33.666 19.5 60.999 19.5c28 0 54 -4 78 -12s45 -18.833 63 -32.5s31.833 -29.334 41.5 -47.001s14.5 -36.167 14.5 -55.5
c0 -31.333 -7.16699 -57.5 -21.5 -78.5s-34.166 -37.5 -59.499 -49.5s-54.5 -20.333 -87.5 -25s-69.5 -7 -109.5 -7v210z" />
    <glyph glyph-name="Q" unicode="Q" horiz-adv-x="709" 
d="M474 -219c21.333 0 44.501 3.50391 69.501 10.5039s48.667 16.5 71 28.5s40.333 25.833 54 41.5s20.5 31.834 20.5 48.501c0 6 -1.5 11.667 -4.5 17s-8.5 8 -16.5 8c-4 0 -11.333 -4.66699 -22 -14c-14 -12.667 -28.333 -22.834 -43 -30.501s-34 -11.5 -58 -11.5
c-14.667 0 -27.167 1.66699 -37.5 5s-22.833 8.66602 -37.5 15.999c-17.333 8.66699 -33.333 15.334 -48 20.001s-33.667 7 -57 7c-6 0 -15.333 -0.666992 -28 -2c-17.333 -2 -30 -3 -38 -3c-21.333 0 -38 3 -50 9c48.667 17.333 96.334 38 143.001 62
s91.167 54.167 133.5 90.5s76.666 79.666 102.999 129.999s39.5 107.166 39.5 170.499c0 53.333 -8.33301 104 -25 152s-40 90.167 -70 126.5s-64.667 64.666 -104 84.999s-81 30.5 -125 30.5c-32.667 0 -67.834 -10.333 -105.501 -31s-73.167 -49.334 -106.5 -86.001
s-60.333 -79 -81 -127s-31 -98 -31 -150c0 -90 19 -169 57 -237s91 -114.333 159 -139c-35.333 -25.333 -67.833 -43.333 -97.5 -54s-57.5 -16 -83.5 -16c-10 0 -18.333 -1.83301 -25 -5.5s-10 -10.5 -10 -20.5c0 -15.333 12.167 -27 36.5 -35s52.833 -12 85.5 -12
c16 0 31.5 -2.5 46.5 -7.5s34.167 -12.833 57.5 -23.5c37.333 -16.667 72.833 -29.667 106.5 -39s74.167 -14 121.5 -14zM299.001 661.004c34.667 0 67.8359 -11.501 99.5029 -34.501s59.667 -53.5 84 -91.5s43.166 -78.667 56.499 -122s20 -84 20 -122
c0 -30 -6 -56.667 -18 -80s-27.333 -42.666 -46 -57.999s-37.834 -26.833 -57.501 -34.5s-36.834 -11.5 -51.501 -11.5c-36.667 0 -70.667 9.66699 -102 29s-58.5 45.833 -81.5 79.5s-40.833 71.667 -53.5 114s-19 85.833 -19 130.5c0 32.667 6 61.667 18 87
s27 46.5 45 63.5s36.667 29.667 56 38s36 12.5 50 12.5z" />
    <glyph glyph-name="R" unicode="R" horiz-adv-x="779" 
d="M185 6c8 0 25.001 -0.998047 51.001 -2.99805c31.333 -2 52.333 -3 63 -3c13.333 0 23.833 1.5 31.5 4.5s11.5 8.16699 11.5 15.5c0 8 -2.5 13.833 -7.5 17.5s-13.167 7.5 -24.5 11.5c-20.667 6.66699 -35.334 14.667 -44.001 24c-6.66699 7.33301 -12 16.833 -16 28.5
s-6 26.167 -6 43.5v211c7.33301 0.666992 18.166 1.33398 32.499 2.00098s26.833 1 37.5 1c23.333 0 42.5 -3.83301 57.5 -11.5s29.5 -20.834 43.5 -39.501c26.667 -36.667 49.5 -78.667 68.5 -126s31.5 -96.333 37.5 -147c2 -17.333 8.5 -28.5 19.5 -33.5
s36.5 -7.5 76.5 -7.5c11.333 0 25.166 1.5 41.499 4.5s32.166 7.16699 47.499 12.5s28 11.666 38 18.999s15 15 15 23c0 8.66699 -3.33301 14.334 -10 17.001s-17 4 -31 4h-12c-4.66699 -0.666992 -9 -1 -13 -1c-12.667 0 -22.667 2 -30 6
c-8.66699 4.66699 -15.334 13 -20.001 25s-9.66699 31 -15 57l-15 57.5c-4.66699 17 -11.5 35.333 -20.5 55s-20.667 39.167 -35 58.5s-31.833 37.333 -52.5 54c50.667 15.333 89.834 37.833 117.501 67.5s41.5 66.834 41.5 111.501c0 36 -10.167 67.333 -30.5 94
s-48.666 48.5 -84.999 65.5s-78.5 29.5 -126.5 37.5s-100.333 12 -157 12c-24.667 0 -50.667 -1 -78 -3s-53.666 -5.33301 -78.999 -10s-46.333 -11.334 -63 -20.001s-25 -19.334 -25 -32.001c0 -16.667 6.33301 -25 19 -25c3.33301 0 9 1.33301 17 4
c12 3.33301 20.667 5 26 5c10.667 0 19.167 -5.16699 25.5 -15.5s9.5 -28.833 9.5 -55.5v-484c0 -27.333 -4.33301 -46.166 -13 -56.499s-21 -18.833 -37 -25.5c-10.667 -4.66699 -18.5 -9.33398 -23.5 -14.001s-7.5 -12.334 -7.5 -23.001
c0 -7.33301 3.83301 -12.333 11.5 -15s17.834 -4 30.501 -4c10.667 0 30.667 1 60 3c24 2 39.667 3 47 3zM244.001 615.002c0 38.667 6.66699 64.501 20 77.501s33.666 19.5 60.999 19.5c28 0 54 -4 78 -12s45 -18.833 63 -32.5s31.833 -29.334 41.5 -47.001
s14.5 -36.167 14.5 -55.5c0 -31.333 -7.16699 -57.5 -21.5 -78.5s-34.166 -37.5 -59.499 -49.5s-54.5 -20.333 -87.5 -25s-69.5 -7 -109.5 -7v210z" />
    <glyph glyph-name="S" unicode="S" horiz-adv-x="645" 
d="M625 247c0 45.333 -8.16699 83.0029 -24.5 113.003s-38 53.333 -65 70s-54.833 29.167 -83.5 37.5s-65.334 16.833 -110.001 25.5c-27.333 5.33301 -49.5 10.166 -66.5 14.499s-32.333 9.5 -46 15.5s-24.5 14 -32.5 24s-12 22 -12 36c0 18 4.16699 33.333 12.5 46
s19.5 22.667 33.5 30s29 12.5 45 15.5s32.333 4.5 49 4.5c48.667 0 85.167 -8 109.5 -24s39.166 -36 44.499 -60c0.666992 -3.33301 1 -8.66602 1 -15.999v-17c-0.666992 -8 -1 -12.667 -1 -14c0 -8 1.83301 -13.833 5.5 -17.5s10.5 -5.5 20.5 -5.5
c6.66699 0 13.834 5.5 21.501 16.5s14.834 25.167 21.501 42.5s12 35.333 16 54s6 35 6 49c0 19.333 -6.83301 35.333 -20.5 48s-31.334 22.334 -53.001 29.001s-44.167 11.334 -67.5 14.001s-46.666 4 -69.999 4c-32 0 -64.833 -6.5 -98.5 -19.5
s-64.334 -30.333 -92.001 -52s-49.834 -45.834 -66.501 -72.501s-25 -53 -25 -79c0 -35.333 6.66699 -65 20 -89s31.166 -43.333 53.499 -58s45.833 -25.834 70.5 -33.501s56 -15.834 94 -24.501c31.333 -7.33301 56.5 -13.833 75.5 -19.5s36.667 -13.167 53 -22.5
s29.333 -21.166 39 -35.499s14.5 -32.166 14.5 -53.499c0 -37.333 -14.667 -69 -44 -95s-71.666 -39 -126.999 -39c-26 0 -51.333 2.16699 -76 6.5s-47.167 11.166 -67.5 20.499s-36.666 22.166 -48.999 38.499s-18.5 35.833 -18.5 58.5c0 3.33301 0.333008 9 1 17
c1.33301 10.667 2 18.667 2 24c0 8 -1.33301 14.333 -4 19s-7 7 -13 7c-14.667 0 -27.167 -6.5 -37.5 -19.5s-18.666 -29.333 -24.999 -49s-11 -38.834 -14 -57.501s-4.5 -34 -4.5 -46c0 -22.667 9.5 -41.667 28.5 -57s43.333 -27.333 73 -36s60.667 -14.834 93 -18.501
s63.5 -5.5 93.5 -5.5c34.667 0 70.667 7 108 21s71.833 33 103.5 57s57.167 51.5 76.5 82.5s29 62.833 29 95.5z" />
    <glyph glyph-name="T" unicode="T" horiz-adv-x="645" 
d="M325 6c8 0 24.3281 -0.99707 48.9951 -2.99707c30 -2 50.333 -3 61 -3c14 0 24 1.33301 30 4s9 8.66699 9 18c0 4.66699 -1.83301 8.33398 -5.5 11.001s-9.83398 5.66699 -18.501 9c-10 3.33301 -18.333 6.83301 -25 10.5s-13.167 9.16699 -19.5 16.5
s-11.5 17.166 -15.5 29.499s-6 27.833 -6 46.5v479c0 20 4 35.833 12 47.5s17.667 17.5 29 17.5c28.667 0 51.5 -3.5 68.5 -10.5s29.333 -16.167 37 -27.5s12.5 -23 14.5 -35s3 -27 3 -45c0 -20.667 1.83301 -35.834 5.5 -45.501s12.834 -14.5 27.501 -14.5
c6.66699 0 12.834 6 18.501 18s10.667 27.833 15 47.5s7.5 39.667 9.5 60s3 37.833 3 52.5c0 7.33301 -0.666992 15.166 -2 23.499s-3.66602 16.333 -6.99902 24s-8.33301 14.167 -15 19.5s-14.667 8 -24 8c-15.333 0 -30.5 -0.5 -45.5 -1.5s-31.833 -2.5 -50.5 -4.5
c-28 -2.66699 -53 -4.83398 -75 -6.50098s-49 -2.5 -81 -2.5c-35.333 0 -65 0.833008 -89 2.5s-49 3.83398 -75 6.50098c-22 2 -39.333 3.5 -52 4.5s-27.667 1.5 -45 1.5c-14.667 0 -25.667 -8 -33 -24s-11 -33 -11 -51c0 -16.667 0.666992 -34.834 2 -54.501
s3.83301 -38.667 7.5 -57s8.33398 -33.333 14.001 -45s12.5 -17.5 20.5 -17.5c12.667 0 20.834 4.33301 24.501 13s6.5 23.334 8.5 44.001c0.666992 17.333 2.33398 32 5.00098 44s8 23.5 16 34.5s20.5 20 37.5 27s39.5 10.5 67.5 10.5c11.333 0 19.5 -5.83301 24.5 -17.5
s7.5 -27.5 7.5 -47.5v-485c0 -28.667 -4.83301 -48.834 -14.5 -60.501s-23.5 -21.5 -41.5 -29.5c-10 -4.66699 -17.5 -9 -22.5 -13s-7.5 -10.333 -7.5 -19c0 -6.66699 3.83301 -11 11.5 -13s19.5 -3 35.5 -3c10.667 0 30.667 1 60 3c24 2 39.667 3 47 3z" />
    <glyph glyph-name="U" unicode="U" horiz-adv-x="740" 
d="M563 750c-14.667 0 -41.6699 1.00293 -81.0029 3.00293c-30.667 1.33301 -50.667 2 -60 2c-8.66699 0 -14.667 -1.5 -18 -4.5s-5 -8.83301 -5 -17.5c0 -10 3 -16.833 9 -20.5s15.333 -6.5 28 -8.5c10.667 -2.66699 19.334 -5.16699 26.001 -7.5s13.167 -6.33301 19.5 -12
s11.5 -14 15.5 -25s6 -25.167 6 -42.5v-436c-24.667 -25.333 -49.667 -45.666 -75 -60.999s-50 -23 -74 -23c-57.333 0 -100 19.167 -128 57.5s-42 90.166 -42 155.499c0 45.333 4.33301 90.333 13 135s21.334 100 38.001 166c11.333 43.333 19 73.666 23 90.999v2
c1.33301 6 2 11 2 15c0 10.667 -2.83301 19.667 -8.5 27s-14.5 11 -26.5 11c-14 0 -31 -0.333008 -51 -1c-20.667 -1.33301 -38 -2 -52 -2c-8 0 -20 0.666992 -36 2c-16 0.666992 -28 1 -36 1c-20 0 -30 -8.66699 -30 -26c0 -8 3 -13.833 9 -17.5s15.333 -7.16699 28 -10.5
c16.667 -4.66699 29.5 -10.334 38.5 -17.001s13.5 -18 13.5 -34c0 -2 -0.333008 -3.66699 -1 -5v-6c-4 -33.333 -13 -84 -27 -152c-11.333 -52.667 -19.666 -96.334 -24.999 -131.001s-8 -68.667 -8 -102c0 -41.333 7.5 -79.166 22.5 -113.499s35 -63.333 60 -87
s52.833 -41.667 83.5 -54s61.667 -18.5 93 -18.5c30 0 61.5 8.66699 94.5 26s65.833 40 98.5 68v-21c0 -18 3.5 -31.833 10.5 -41.5s15.167 -14.5 24.5 -14.5c2.66699 0 13.334 0.666992 32.001 2c14.667 1.33301 25.5 2.16602 32.5 2.49902s12.167 0.5 15.5 0.5
c8 0 20.333 -1 37 -3c12 -1.33301 21 -2 27 -2c12.667 -0 22.667 1.33301 30 4s11 7 11 13c0 8 -2.33301 13.833 -7 17.5s-12 7.16699 -22 10.5c-9.33301 3.33301 -17.166 6.66602 -23.499 9.99902s-12.333 8.16602 -18 14.499s-10.334 15.333 -14.001 27
s-5.5 26.167 -5.5 43.5v470c0 32.667 5.16699 55.334 15.5 68.001s24.166 22.334 41.499 29.001c8.66699 3.33301 15 6.5 19 9.5s6 7.83301 6 14.5c0 16 -9 24 -27 24c-10 0 -29.667 -0.666992 -59 -2c-30.667 -2 -51.667 -3 -63 -3z" />
    <glyph glyph-name="V" unicode="V" horiz-adv-x="756" 
d="M632 754c-14.667 0 -38.0029 0.65918 -70.0029 1.99219c-38 1.33301 -65.667 2 -83 2c-12.667 0 -19 -6.66699 -19 -20c0 -4.66699 2.16699 -8.33398 6.5 -11.001s12.166 -5.66699 23.499 -9c11.333 -4 21.166 -8 29.499 -12s16.5 -9.66699 24.5 -17
s14.5 -17.333 19.5 -30s7.5 -28 7.5 -46c0 -1.33301 -0.333008 -3.66602 -1 -6.99902v-7c-2 -30.667 -7.16699 -70.167 -15.5 -118.5s-19.166 -94.833 -32.499 -139.5c-7.33301 -24.667 -15.833 -49.167 -25.5 -73.5s-19.167 -45.666 -28.5 -63.999
s-18.166 -32.833 -26.499 -43.5s-15.166 -16 -20.499 -16c-15.333 0 -34.166 18 -56.499 54s-43.166 81 -62.499 135c-8.66699 24 -16.667 49.167 -24 75.5s-14.333 53.5 -21 81.5c-12 48.667 -20 89.334 -24 122.001c0 2 -0.333008 5.66699 -1 11v9
c0 15.333 2.16699 28 6.5 38s10.166 17.833 17.499 23.5s15 9.83398 23 12.501s17.667 5.33398 29 8.00098c12 3.33301 20.667 6.33301 26 9s8 7 8 13c0 8 -3.83301 14.5 -11.5 19.5s-16.834 7.5 -27.501 7.5c-12 0 -30 -1 -54 -3c-23.333 -2.66699 -42 -4 -56 -4
c-16.667 0 -40.334 1 -71.001 3c-27.333 2 -49 3 -65 3c-13.333 0 -22.833 -1.66699 -28.5 -5s-8.5 -10.333 -8.5 -21c0 -5.33301 5.33301 -10.666 16 -15.999c13.333 -7.33301 24.5 -16.666 33.5 -27.999s14.5 -31 16.5 -59c5.33301 -62.667 16.833 -127.334 34.5 -194.001
s40.5 -128.667 68.5 -186c17.333 -36 35.833 -69.5 55.5 -100.5s39.334 -57.833 59.001 -80.5s38.167 -40.5 55.5 -53.5s32.333 -19.5 45 -19.5c10.667 0 23.334 7.5 38.001 22.5s30.167 35.333 46.5 61s32.333 53.834 48 84.501s30.5 62 44.5 94
c24.667 56.667 45.167 118.834 61.5 186.501s27.5 131.834 33.5 192.501c2 17.333 6.66699 31.5 14 42.5s16.666 21.833 27.999 32.5c10.667 10 16.334 17.333 17.001 22c0 8 -3.66699 13.667 -11 17s-16.666 5 -27.999 5c-7.33301 0 -18 -0.666992 -32 -2
c-14 -2 -24.667 -3 -32 -3z" />
    <glyph glyph-name="W" unicode="W" horiz-adv-x="972" 
d="M187 752c-16 0 -38.665 0.993164 -67.998 2.99316c-26 2 -47 3 -63 3c-13.333 0 -22.666 -1.66699 -27.999 -5s-8 -10.333 -8 -21c0 -5.33301 4.33301 -11 13 -17c11.333 -7.33301 20.5 -16.833 27.5 -28.5s11.833 -31.5 14.5 -59.5c4 -49.333 13.667 -109.833 29 -181.5
s34 -141.834 56 -210.501s45.5 -125.334 70.5 -170.001s48.833 -67.334 71.5 -68.001c9.33301 0 21.166 9 35.499 27s29.666 41.667 45.999 71s32.5 61.333 48.5 96s30 67.667 42 99c11.333 -36 24 -71.5 38 -106.5s28 -66.167 42 -93.5s28 -49.166 42 -65.499
s26.667 -24.5 38 -24.5c10.667 0 22.5 7 35.5 21s26.833 32.833 41.5 56.5s29.167 50.334 43.5 80.001s28.5 60.834 42.5 93.501c24.667 56.667 45.167 119.5 61.5 188.5s27.5 134.167 33.5 195.5c2 17.333 6.66699 31.5 14 42.5s16.666 21.833 27.999 32.5
c10.667 10 16.334 17.333 17.001 22c0 8 -3.66699 13.667 -11 17s-16.666 5 -27.999 5c-7.33301 0 -18 -0.666992 -32 -2c-14 -2 -24.667 -3 -32 -3c-14.667 0 -38 0.666992 -70 2c-38 1.33301 -65.667 2 -83 2c-12.667 0 -19 -6.66699 -19 -20
c0 -4.66699 2.16699 -8.33398 6.5 -11.001s12.166 -5.66699 23.499 -9c11.333 -4 21.166 -8 29.499 -12s16.5 -9.66699 24.5 -17s14.5 -17.333 19.5 -30s7.5 -28 7.5 -46c0 -1.33301 -0.333008 -3.66602 -1 -6.99902v-7c-2 -31.333 -7.16699 -71.833 -15.5 -121.5
s-19.166 -96.834 -32.499 -141.501c-17.333 -56 -31.166 -95.167 -41.499 -117.5s-20.833 -33.5 -31.5 -33.5c-5.33301 0 -15.5 17.167 -30.5 51.5s-30.5 76.833 -46.5 127.5c-16.667 52.667 -29.834 106.834 -39.501 162.501s-14.5 98.167 -14.5 127.5
c0 14.667 -2.83301 26.5 -8.5 35.5s-12.834 13.5 -21.501 13.5c-9.33301 0 -17.5 -4.5 -24.5 -13.5s-11.167 -22.833 -12.5 -41.5c-2 -32.667 -6.5 -71 -13.5 -115s-16.833 -88 -29.5 -132l-24 -76.5c-8 -24.333 -16 -46.166 -24 -65.499s-15.333 -34.666 -22 -45.999
s-12.667 -17 -18 -17c-6 0 -13.167 6.5 -21.5 19.5s-17 31.167 -26 54.5s-17.333 48.833 -25 76.5s-14.167 55.834 -19.5 84.501c-4 22.667 -7 44.834 -9 66.501s-4 45.834 -6 72.501c-1.33301 20.667 -2.33301 34.667 -3 42c0 2.66699 -0.333008 6.33398 -1 11.001v9
c0 15.333 2.16699 28 6.5 38s10 18 17 24s14.333 10.333 22 13s16.834 5.33398 27.501 8.00098c11.333 2.66699 19.666 5.5 24.999 8.5s8 7.5 8 13.5c0 8 -3.66699 14.5 -11 19.5s-16 7.5 -26 7.5c-12 0 -29.667 -1 -53 -3c-22 -2.66699 -40 -4 -54 -4z" />
    <glyph glyph-name="X" unicode="X" horiz-adv-x="742" 
d="M145 6c6.66699 0 20.3389 -0.999023 41.0059 -2.99902c25.333 -2 42.333 -3 51 -3c12 0 20.333 1.33301 25 4s7 8.66699 7 18c0 8 -1.66699 13.833 -5 17.5s-8.33301 7.5 -15 11.5c-10.667 5.33301 -19 12.333 -25 21s-9 24 -9 46c2 30 13.167 61.833 33.5 95.5
s48.5 71.834 84.5 114.501c37.333 -44 68 -83.667 92 -119s42 -70 54 -104c1.33301 -4.66699 2 -9 2 -13c0 -8 -2.16699 -14.667 -6.5 -20s-10.5 -11.333 -18.5 -18c-12 -9.33301 -18 -17 -18 -23c0 -9.33301 2.33301 -16.833 7 -22.5s11.667 -8.5 21 -8.5
c10.667 0 30.667 1 60 3c24 2 39.667 3 47 3c8 0 24.333 -1 49 -3c30 -2 50.333 -3 61 -3c14 0 24 1.33301 30 4s9 8.66699 9 18c0 7.33301 -2.33301 13.166 -7 17.499s-12.334 9.83301 -23.001 16.5c-10.667 7.33301 -19.5 13.833 -26.5 19.5s-12.833 12.834 -17.5 21.501
c-25.333 44.667 -57.833 96 -97.5 154s-81.834 114.667 -126.501 170c0 0.666992 -0.666992 1.66699 -2 3l-2 2c35.333 40 64.166 75 86.499 105s38.833 58.333 49.5 85c11.333 29.333 23 50 35 62s25.333 21.333 40 28c7.33301 4 12.666 7.5 15.999 10.5s5 8.16699 5 15.5
c0 16 -6.33301 24 -19 24c-6.66699 0 -20.667 -1.33301 -42 -4c-22.667 -2.66699 -38.334 -4 -47.001 -4c-10.667 0 -28.667 1.33301 -54 4c-20 2.66699 -34 4 -42 4c-6.66699 0 -11 -1.5 -13 -4.5s-3 -8.83301 -3 -17.5c0 -10 1.66699 -17.333 5 -22
s8.33301 -9.33398 15 -14.001c7.33301 -5.33301 12.666 -10.5 15.999 -15.5s5 -12.5 5 -22.5s-3 -25.667 -9 -47c-6 -20 -16.5 -41.167 -31.5 -63.5s-33.833 -46.833 -56.5 -73.5l-14 16c-34 36.667 -60 67.167 -78 91.5s-30 49.833 -36 76.5v5c-0.666992 2 -1 3.33301 -1 4
c0 7.33301 2.16699 13.5 6.5 18.5s10.5 10.167 18.5 15.5c6.66699 4.66699 11.667 8.66699 15 12s5 7.66602 5 12.999c0 16 -9 24 -27 24c-10 0 -26.333 -0.666992 -49 -2c-24 -1.33301 -41.667 -2 -53 -2c-15.333 0 -38.333 1.66699 -69 5c-24 2 -41 3 -51 3
c-8.66699 0 -14.667 -1.5 -18 -4.5s-5 -8.83301 -5 -17.5c0 -4 2 -7.5 6 -10.5s10.333 -6.16699 19 -9.5c10.667 -4.66699 19.167 -9.16699 25.5 -13.5s10.5 -10.5 12.5 -18.5c10.667 -39.333 31.167 -80 61.5 -122s73.833 -96 130.5 -162l15 -18l-31 -35
c-34 -39.333 -64.667 -79.666 -92 -120.999s-49.333 -79.333 -66 -114c-12 -24.667 -23 -41.334 -33 -50.001s-20.333 -14.667 -31 -18c-6 -2.66699 -10.167 -5.16699 -12.5 -7.5s-3.5 -7.5 -3.5 -15.5c0 -7.33301 3.16699 -12.333 9.5 -15s14.833 -4 25.5 -4
c9.33301 0 26 1 50 3c20 2 33 3 39 3z" />
    <glyph glyph-name="Y" unicode="Y" horiz-adv-x="725" 
d="M365 6c8 0 24.3359 -1.00098 49.0029 -3.00098c30 -2 50.333 -3 61 -3c14.667 0 26.667 1 36 3s14 5.66699 14 11c0 8 -2.66699 14 -8 18s-13.666 8.33301 -24.999 13c-21.333 8 -36.333 17 -45 27c-7.33301 8 -13 17.833 -17 29.5s-6 26.167 -6 43.5v223
c34.667 23.333 68 58.166 100 104.499s61.667 98.833 89 157.5c12 25.333 24.167 43.833 36.5 55.5s25.833 21.167 40.5 28.5c10 6 15 11 15 15c0 10 -2 16.167 -6 18.5s-11.333 3.5 -22 3.5c-8 0 -22 -0.666992 -42 -2s-34 -2 -42 -2c-6 0 -16.333 0.666992 -31 2
c-17.333 1.33301 -31.333 2 -42 2c-18.667 -0.666992 -28 -7 -28 -19c0 -5.33301 1.66699 -9.16602 5 -11.499s8.66602 -5.16602 15.999 -8.49902c12 -5.33301 21.333 -11.5 28 -18.5s10 -18.167 10 -33.5c0 -17.333 -6.66699 -39 -20 -65s-29.5 -52 -48.5 -78
s-36.833 -48 -53.5 -66s-27.334 -27 -32.001 -27c-2 0 -6.33301 3.33301 -13 10s-14.167 14.834 -22.5 24.501l-25.5 31c-8.66699 11 -16.334 21.167 -23.001 30.5c-18.667 26.667 -34.334 53.167 -47.001 79.5s-19 47.5 -19 63.5s3.5 27.5 10.5 34.5
s16.833 12.833 29.5 17.5c7.33301 3.33301 12.833 6.33301 16.5 9s5.5 6.66699 5.5 12c0 6.66699 -1.5 11.5 -4.5 14.5s-9.5 4.5 -19.5 4.5c-12 0 -33.667 -0.666992 -65 -2s-53.333 -2 -66 -2c-13.333 0 -31.333 1.33301 -54 4c-22.667 2 -40.667 3 -54 3
c-6 0 -11.833 -2 -17.5 -6s-8.5 -8.66699 -8.5 -14c0 -8.66699 0.666992 -14.167 2 -16.5s4.33301 -4.5 9 -6.5c8.66699 -4 17.667 -11.333 27 -22s21 -30.334 35 -59.001c27.333 -57.333 58.166 -109.666 92.499 -156.999s71.5 -87.333 111.5 -120v-219
c0 -19.333 -1.5 -35 -4.5 -47s-7 -21 -12 -27s-10 -10.167 -15 -12.5s-11.833 -4.5 -20.5 -6.5c-9.33301 -2.66699 -16.166 -5.83398 -20.499 -9.50098s-6.5 -10.5 -6.5 -20.5c0 -6 3.66699 -10 11 -12s17 -3 29 -3c10.667 0 30.667 1 60 3c24 2 39.667 3 47 3z" />
    <glyph glyph-name="Z" unicode="Z" horiz-adv-x="619" 
d="M200 366l-69.002 -94.5c-19.333 -27.667 -37.5 -56 -54.5 -85s-30.667 -57.667 -41 -86s-15.5 -54.5 -15.5 -78.5c0 -6.66699 4.66699 -12 14 -16s18.333 -6 27 -6c17.333 0 41 2 71 6c28 3.33301 49.333 5 64 5h24c34 0 82 -1.66699 144 -5
c64.667 -4 112.334 -6 143.001 -6c20.667 0 37.334 5.5 50.001 16.5s22 25.333 28 43s9.83301 36 11.5 55s2.5 38.5 2.5 58.5c0 16.667 -2.83301 32.334 -8.5 47.001s-16.167 22 -31.5 22c-8.66699 0 -15 -3.66699 -19 -11s-8 -19 -12 -35
c-5.33301 -20 -11.333 -36.833 -18 -50.5s-17.334 -24.5 -32.001 -32.5c-25.333 -14.667 -56.5 -24.334 -93.5 -29.001s-77.167 -7 -120.5 -7c-28 0 -45.5 0.166992 -52.5 0.5s-10.833 1.16602 -11.5 2.49902c-2 3.33301 -3 7.33301 -3 12c0 12.667 6 31 18 55
s27.167 50.333 45.5 79s38.5 58 60.5 88l62 82l13 17l72 91.5c20 26.333 39.167 53.333 57.5 81s33.333 53.5 45 77.5s17.5 44.333 17.5 61c0 6.66699 -2.83301 12.834 -8.5 18.501s-13.5 8.5 -23.5 8.5s-23.333 -0.666992 -40 -2s-30.334 -2 -41.001 -2
c-36 0 -89.667 2 -161 6c-70 3.33301 -122 5 -156 5c-49.333 0 -81.666 -7.33301 -96.999 -22s-23 -43.667 -23 -87c0 -9.33301 1 -20.5 3 -33.5s5 -25.167 9 -36.5s9.33301 -20.833 16 -28.5s14.667 -11.5 24 -11.5c4 0 7.66699 8.66699 11 26c4 18 8.66699 33.333 14 46
s14 22.667 26 30c23.333 14 51 25 83 33s63.667 12 95 12c42.667 0 72.334 -4 89.001 -12c1.33301 -0.666992 2 -2 2 -4c0 -6 -4.5 -16.5 -13.5 -31.5s-20.5 -32.667 -34.5 -53l-50.5 -70.5l-71.5 -96c-16.667 -21.333 -30 -39 -40 -53z" />
    <glyph glyph-name="underscore" unicode="_" horiz-adv-x="250" 
d="M-2 -17v-17h274v17h-274z" />
    <glyph glyph-name="grave" unicode="`" horiz-adv-x="195" 
d="M20 768l58 -86.999c11.333 -16.667 23.5 -30.334 36.5 -41.001s25.833 -16 38.5 -16c14.667 0 22 6.66699 22 20c0 8.66699 -4 21 -12 37l-43 87h-100z" />
    <glyph glyph-name="a" unicode="a" horiz-adv-x="585" 
d="M467 157l-0.000976562 238c0 27.333 -5.16699 50.833 -15.5 70.5s-23.5 35.5 -39.5 47.5s-32.5 20.667 -49.5 26s-32.5 8 -46.5 8c-16.667 0 -37.334 -4.16699 -62.001 -12.5s-48.667 -20.333 -72 -36s-42.666 -35.167 -57.999 -58.5s-23 -49.333 -23 -78
c0 -8 1 -17.667 3 -29s4.66699 -22.333 8 -33c-30.667 -23.333 -53.667 -50.666 -69 -81.999s-23 -63.333 -23 -96c0 -13.333 2 -27.5 6 -42.5s10.667 -29.333 20 -43s22.5 -25 39.5 -34s37.833 -13.5 62.5 -13.5c28 0 58.333 6 91 18s62 27.667 88 47
c8.66699 6.66699 14.667 10 18 10s5 -3.66699 5 -11c0 -8.66699 0.5 -14.834 1.5 -18.501s3.16699 -7.16699 6.5 -10.5l27 -28c4.66699 -5.33301 11 -8 19 -8c4 0 8.66699 1.66699 14 5l129 58c6.66699 4 11.334 8.16699 14.001 12.5s4 10.833 4 19.5
c0 2 -1.66699 5.16699 -5 9.5s-6 6.5 -8 6.5c-4.66699 0 -11.667 -1.66699 -21 -5c-10 -4 -17.333 -6 -22 -6c-28 0 -42 23 -42 69zM162.999 331c-4.66699 14 -7.00098 29.333 -7.00098 46c0 26.667 12.5 47.667 37.5 63s50.833 23 77.5 23c25.333 0 44.5 -6.5 57.5 -19.5
s20.167 -36.167 21.5 -69.5v-2c-71.333 -2 -133.666 -15.667 -186.999 -41zM239.998 78c-32 0 -55.3359 6.00098 -70.0029 18.001s-22 31.667 -22 59c0 16 5.33301 33.5 16 52.5s25.334 37.167 44.001 54.5s40.334 31.666 65.001 42.999s50.334 17.333 77.001 18v-185
c-13.333 -18 -29.5 -32.5 -48.5 -43.5s-39.5 -16.5 -61.5 -16.5z" />
    <glyph glyph-name="b" unicode="b" horiz-adv-x="589" 
d="M370 543c-22 0 -44.998 -4.83594 -68.998 -14.5029s-46.667 -23.5 -68 -41.5v208c0 5.33301 -1 11 -3 17s-4.66699 10.333 -8 13l-48 41c-6.66699 5.33301 -13 8 -19 8c-4.66699 0 -10.334 -1.66699 -17.001 -5l-100 -48c-6 -2.66699 -10.5 -5.5 -13.5 -8.5
s-4.5 -7.16699 -4.5 -12.5c0 -4 1.66699 -7.66699 5 -11s6.66602 -5 9.99902 -5c4.66699 0 11 1 19 3c6 1.33301 10.667 2 14 2c12.667 0 23.834 -6.16699 33.501 -18.5s14.5 -27.166 14.5 -44.499v-500c0 -21.333 3 -37.333 9 -48c8 -13.333 18.167 -25.333 30.5 -36
s26.5 -20.667 42.5 -30c10.667 -6 22 -11.167 34 -15.5s23.333 -6.5 34 -6.5c22 0 46.5 7.33301 73.5 22s55.833 35.334 86.5 62.001c42 36 76.333 76.333 103 121s40 91.334 40 140.001c0 38 -5.5 70.5 -16.5 97.5s-25.833 48.5 -44.5 64.5s-39.834 27.667 -63.501 35
s-48.5 11 -74.5 11zM233.002 416.997c22 32.667 55.667 49 101 49c29.333 0 54.666 -15.333 75.999 -46s32 -72.667 32 -126c0 -31.333 -4 -60.5 -12 -87.5s-18.5 -50.333 -31.5 -70s-27 -35 -42 -46s-29.5 -16.5 -43.5 -16.5c-9.33301 0 -18.666 2 -27.999 6
c-18 8 -31.167 22.5 -39.5 43.5s-12.5 42.833 -12.5 65.5v228z" />
    <glyph glyph-name="c" unicode="c" horiz-adv-x="515" 
d="M238 457c10 0 23 -1.50098 39 -4.50098s32.333 -7.5 49 -13.5s31 -13.5 43 -22.5s19 -19.5 21 -31.5c0 -0.666992 0.333008 -4.33398 1 -11.001c0.666992 -14 2 -26 4 -36s6.33301 -15 13 -15c14.667 0.666992 27.5 13.334 38.5 38.001s16.5 50 16.5 76
c0 20 -2.83301 37 -8.5 51s-17.834 25 -36.501 33c-16 7.33301 -40 13.5 -72 18.5s-63.333 7.5 -94 7.5c-28 0 -53.5 -8.5 -76.5 -25.5s-48.167 -42.167 -75.5 -75.5c-24 -29.333 -43.333 -59 -58 -89s-22 -61 -22 -93c0 -50 7 -92.833 21 -128.5s32.667 -64.167 56 -85.5
s49 -36.833 77 -46.5s57 -14.5 87 -14.5c56.667 0 101 11 133 33s60 55.333 84 100c11.333 20.667 17 37 17 49c0 13.333 -4.66699 20 -14 20c-10 0 -19 -3.66699 -27 -11s-17.333 -17.666 -28 -30.999c-3.33301 -4.66699 -5.66602 -7.66699 -6.99902 -9
c-16.667 -21.333 -36.834 -36.833 -60.501 -46.5s-46.5 -14.5 -68.5 -14.5c-17.333 0 -35.666 6 -54.999 18s-37.333 28.167 -54 48.5s-30.167 43 -40.5 68s-15.5 49.833 -15.5 74.5c0 52.667 9.66699 94 29 124s47.333 45 84 45z" />
    <glyph glyph-name="d" unicode="d" horiz-adv-x="600" 
d="M324 561c-14.667 0 -30.499 -3.16797 -47.499 -9.50098s-34 -15.166 -51 -26.499s-33.5 -23.333 -49.5 -36s-31.333 -26.334 -46 -41.001c-12.667 -12.667 -25.334 -27.167 -38.001 -43.5s-24.5 -34.5 -35.5 -54.5s-19.833 -41.5 -26.5 -64.5s-10 -46.167 -10 -69.5
c0 -47.333 8.16699 -86.166 24.5 -116.499s36.333 -52.833 60 -67.5s46.334 -24.334 68.001 -29.001s40.834 -7 57.501 -7c24 0 47.667 6 71 18s45.666 28.333 66.999 49c2 -8 6.66699 -15 14 -21l52 -41c6 -5.33301 12.333 -8 19 -8c4 0 8.66699 1.66699 14 5l95 58
c6.66699 4 11.334 8.16699 14.001 12.5s4 10.833 4 19.5c0 2 -1.66699 5.16699 -5 9.5s-6 6.5 -8 6.5c-4.66699 0 -11.667 -1.66699 -21 -5c-10 -4 -17.333 -6 -22 -6c-28 0 -42 23 -42 69v535c0 5.33301 -1 11 -3 17s-4.66699 10.333 -8 13l-48 41
c-6.66699 5.33301 -13 8 -19 8c-4.66699 0 -10.334 -1.66699 -17.001 -5l-100 -48c-6 -2.66699 -10.5 -5.5 -13.5 -8.5s-4.5 -7.16699 -4.5 -12.5c0 -4 1.66699 -7.66699 5 -11s6.66602 -5 9.99902 -5c4.66699 0 11 1 19 3c6 1.33301 10.667 2 14 2
c12.667 0 23.834 -6.16699 33.501 -18.5s14.5 -27.166 14.5 -44.499v-82c-14.667 10 -28.334 15 -41.001 15zM284.001 476.999c15.333 0 32.667 -7.83301 52 -23.5s29 -35.167 29 -58.5v-259c0 -8 -3.66699 -15.167 -11 -21.5s-17.166 -11.666 -29.499 -15.999
s-25 -7.66602 -38 -9.99902s-24.833 -3.5 -35.5 -3.5c-12 0 -24.167 4.16699 -36.5 12.5s-23.833 20.166 -34.5 35.499s-19.334 33.5 -26.001 54.5s-10 43.833 -10 68.5c0 25.333 3.83301 51.166 11.5 77.499s18 50.333 31 72s28 39 45 52s34.5 19.5 52.5 19.5z" />
    <glyph glyph-name="e" unicode="e" horiz-adv-x="524" 
d="M238 460c18 0 38.667 -7.83203 62 -23.499s46 -35.834 68 -60.501c-34 -20 -69.667 -38.5 -107 -55.5s-78.333 -34.5 -123 -52.5c-2 14 -3 27.667 -3 41c0 23.333 2.66699 45.666 8 66.999c6.66699 26.667 18 47.334 34 62.001s36.333 22 61 22zM488 429.001
c-34.667 45.333 -68.3291 77.5 -100.996 96.5s-75.334 28.5 -128.001 28.5c-28 0 -54.667 -9.16699 -80 -27.5s-51.666 -44.166 -78.999 -77.499c-24 -29.333 -43.333 -59 -58 -89s-22 -61 -22 -93c0 -49.333 8.16699 -92 24.5 -128s37.5 -64.833 63.5 -86.5
s53.333 -37.5 82 -47.5s55.667 -15 81 -15c50.667 0 95.667 13.667 135 41s69 65 89 113c6 16 9 28.333 9 37c0 13.333 -5.33301 20 -16 20c-8.66699 0 -18.834 -4.83301 -30.501 -14.5s-22.167 -22.834 -31.5 -39.501c-10.667 -18.667 -27.834 -33.667 -51.501 -45
s-46.834 -17 -69.501 -17c-24 0 -50 11.667 -78 35s-50.667 52 -68 86c75.333 50.667 165.666 95.667 270.999 135c4 1.33301 8.66699 3 14 5c18.667 5.33301 32.667 11.5 42 18.5s14 18.5 14 34.5c0 10 -4 20 -12 30z" />
    <glyph glyph-name="f" unicode="f" horiz-adv-x="425" 
d="M44 474c4 0 11.002 2 21.002 6c6.66699 2.66699 11 4 13 4c4.66699 0 7 -6.33301 7 -19v-529c0 -6 -0.5 -15.667 -1.5 -29s-2.5 -26.833 -4.5 -40.5s-4.33301 -25.5 -7 -35.5s-5.66699 -16 -9 -18c-19.333 -12 -29 -25 -29 -39c0 -13.333 6 -20 18 -20
c8.66699 0 27.667 7 57 21c22.667 10.667 40.334 18.334 53.001 23.001c13.333 4.66699 33.333 9.33398 60 14.001c23.333 4 40 8.33301 50 13s15 12.667 15 24c0 17.333 -9 26.666 -27 27.999h-9c-17.333 0.666992 -29.833 5 -37.5 13s-11.5 27.667 -11.5 59v509
c0 18.667 8.66699 28 26 28h21c14 0 25.5 2.66699 34.5 8s13.5 12.666 13.5 21.999c0 8.66699 -3 14.334 -9 17.001s-13.333 4 -22 4h-45c-12.667 0 -19 5.33301 -19 16v86c0 24.667 6.33301 43.5 19 56.5s27.334 19.5 44.001 19.5c12 0 21.5 -2.83301 28.5 -8.5
s12.167 -13 15.5 -22s5.33301 -18.333 6 -28s1 -20.834 1 -33.501c0 -26 7.66699 -39 23 -39c6.66699 0 12.5 3.5 17.5 10.5s10.167 17.167 15.5 30.5c8 19.333 15.5 39.333 22.5 60s10.5 34.667 10.5 42c0 18.667 -7.83301 32 -23.5 40s-36.834 12 -63.501 12
c-16.667 0 -36.334 -2 -59.001 -6s-47.5 -13.333 -74.5 -28s-50.333 -38.5 -70 -71.5s-29.5 -76.167 -29.5 -129.5v-4c0 -2.66699 -1.33301 -4.66699 -4 -6s-6.33398 -2.33301 -11.001 -3c-19.333 -2 -32.5 -5.5 -39.5 -10.5s-10.5 -12.833 -10.5 -23.5
c0 -4.66699 2.16699 -9.66699 6.5 -15s10.166 -8 17.499 -8z" />
    <glyph glyph-name="g" unicode="g" horiz-adv-x="532" 
d="M357 549c-30 0 -62.335 -10.999 -97.002 -32.999s-69.667 -51.333 -105 -88c-33.333 -34.667 -59.333 -67.334 -78 -98.001s-28 -62.667 -28 -96c0 -54 8.83301 -97.5 26.5 -130.5s43.167 -56.833 76.5 -71.5c-40 -13.333 -72 -34.166 -96 -62.499s-36 -58.833 -36 -91.5
c0 -33.333 7.16699 -60.666 21.5 -81.999s33.333 -37.333 57 -48s49.334 -17.834 77.001 -21.501s57.834 -5.5 90.501 -5.5c34 0 66 4 96 12s56.167 19.333 78.5 34s39.833 31.5 52.5 50.5s19 39.167 19 60.5c0 29.333 -0.666992 55.333 -2 78s-3.33301 49 -6 79
c-4 41.333 -6.83301 77.166 -8.5 107.499s-2.5 69.5 -2.5 117.5c0 20.667 3.33301 50.334 10 89.001c5.33301 33.333 8 57.666 8 72.999c0 10 -4.5 21.667 -13.5 35s-20.5 27 -34.5 41c-16 16 -32.667 28.5 -50 37.5s-36 13.5 -56 13.5zM372.998 49.001
c2.66699 -6 5.33301 -15.501 8 -28.501s4.83398 -28.333 6.50098 -46s3 -33.667 4 -48s1.5 -26.5 1.5 -36.5c0 -13.333 -3.5 -26.333 -10.5 -39s-16.5 -24.167 -28.5 -34.5s-25.667 -18.333 -41 -24s-31 -8.5 -47 -8.5c-32.667 0 -59.334 8.5 -80.001 25.5
s-31 38.5 -31 64.5c0 16 1 29.667 3 41s6.83301 22.5 14.5 33.5s20 21.333 37 31s39.5 18.834 67.5 27.501c34.667 10.667 66.667 24.667 96 42zM323.997 462c16.667 0 31.834 -6.66699 45.501 -20s20.5 -31.333 20.5 -54c0 -12.667 -2.66699 -35.667 -8 -69
c-4.66699 -30 -7 -49.667 -7 -59c0 -18.667 0.666992 -44.667 2 -78c1.33301 -21.333 2 -37.333 2 -48c0 -36 -26 -54 -78 -54c-36 0 -66.167 14.333 -90.5 43s-36.5 68.667 -36.5 120c0 26.667 3.66699 53.167 11 79.5s17.833 50 31.5 71s29.667 37.667 48 50
s38.166 18.5 59.499 18.5z" />
    <glyph glyph-name="h" unicode="h" horiz-adv-x="666" 
d="M116 626l-0.00488281 -538c0 -14.667 1.5 -25.167 4.5 -31.5s7.16699 -11.833 12.5 -16.5l52 -41c6 -5.33301 12.333 -8 19 -8c4 0 8.66699 1.66699 14 5l95 58c6.66699 4 11.334 8.16699 14.001 12.5s4 10.833 4 19.5c0 2 -1.66699 5.16699 -5 9.5s-6 6.5 -8 6.5
c-4.66699 0 -11.667 -1.66699 -21 -5c-10 -4 -17.333 -6 -22 -6c-28 0 -42 23 -42 69v238c5.33301 4 13.333 10.667 24 20c16.667 14 30.834 24.667 42.501 32s24.5 11 38.5 11c20 0 40.5 -7.66699 61.5 -23s31.5 -35.666 31.5 -60.999v-290
c0 -14.667 1.5 -25.167 4.5 -31.5s7.16699 -11.833 12.5 -16.5l52 -41c6 -5.33301 12.333 -8 19 -8c4 0 8.66699 1.66699 14 5l95 58c6.66699 4 11.334 8.16699 14.001 12.5s4 10.833 4 19.5c0 2 -1.66699 5.16699 -5 9.5s-6 6.5 -8 6.5c-4.66699 0 -11.667 -1.66699 -21 -5
c-10 -4 -17.333 -6 -22 -6c-28 0 -42 23 -42 69v219c0 16.667 -5.16699 34.667 -15.5 54s-24.166 37.666 -41.499 54.999s-36.166 31.333 -56.499 42s-39.5 16 -57.5 16s-34.667 -4.33301 -50 -13s-33.333 -21.334 -54 -38.001c-17.333 -14 -30.666 -24 -39.999 -30v231
c0 5.33301 -1 11 -3 17s-4.66699 10.333 -8 13l-48 41c-6.66699 5.33301 -13 8 -19 8c-4.66699 0 -10.334 -1.66699 -17.001 -5l-100 -48c-6 -2.66699 -10.5 -5.5 -13.5 -8.5s-4.5 -7.16699 -4.5 -12.5c0 -4 1.66699 -7.66699 5 -11s6.66602 -5 9.99902 -5
c4.66699 0 11 1 19 3c6 1.33301 10.667 2 14 2c12.667 0 23.834 -6.16699 33.501 -18.5s14.5 -27.166 14.5 -44.499z" />
    <glyph glyph-name="i" unicode="i" horiz-adv-x="351" 
d="M233 158v307.999c0 5.33301 -1 11 -3 17s-4.66699 10.333 -8 13l-48 41c-6.66699 5.33301 -13 8 -19 8c-4.66699 0 -10.334 -1.66699 -17.001 -5l-100 -48c-6 -2.66699 -10.5 -5.5 -13.5 -8.5s-4.5 -7.16699 -4.5 -12.5c0 -4 1.66699 -7.66699 5 -11
s6.66602 -5 9.99902 -5c4.66699 0 11 1 19 3c6 1.33301 10.667 2 14 2c12.667 0 23.834 -6.16699 33.501 -18.5s14.5 -27.166 14.5 -44.499v-311c0 -14.667 1.5 -25.167 4.5 -31.5s7.16699 -11.833 12.5 -16.5l52 -41c6 -5.33301 12.333 -8 19 -8c4 0 8.66699 1.66699 14 5
l95 58c6.66699 4 11.334 8.16699 14.001 12.5s4 10.833 4 19.5c0 2 -1.66699 5.16699 -5 9.5s-6 6.5 -8 6.5c-4.66699 0 -11.667 -1.66699 -21 -5c-10 -4 -17.333 -6 -22 -6c-28 0 -42 23 -42 69zM164 741.999c-16.667 0 -30.999 -6.33301 -42.999 -19
s-18 -29.334 -18 -50.001c0 -20 7.66699 -39.667 23 -59c6 -8 12.5 -14.5 19.5 -19.5s13.167 -7.5 18.5 -7.5c12 0 24.5 9.33301 37.5 28s19.5 38.334 19.5 59.001c0 21.333 -5.33301 38 -16 50s-24.334 18 -41.001 18z" />
    <glyph glyph-name="j" unicode="j" horiz-adv-x="274" 
d="M254 -60l0.000976562 525.999c0 5.33301 -1 11 -3 17s-4.66699 10.333 -8 13l-48 41c-6.66699 5.33301 -13 8 -19 8c-4.66699 0 -10.334 -1.66699 -17.001 -5l-100 -48c-6 -2.66699 -10.5 -5.5 -13.5 -8.5s-4.5 -7.16699 -4.5 -12.5c0 -4 1.66699 -7.66699 5 -11
s6.66602 -5 9.99902 -5c4.66699 0 11 1 19 3c6 1.33301 10.667 2 14 2c12.667 0 23.834 -6.16699 33.501 -18.5s14.5 -27.166 14.5 -44.499v-403c0 -20 -3.33301 -36.333 -10 -49s-18 -19 -34 -19c-6 0 -14.333 1.66699 -25 5s-19 5 -25 5c-15.333 0 -23 -5.33301 -23 -16
c0 -7.33301 2.33301 -12.833 7 -16.5s12.334 -7.83398 23.001 -12.501c10 -4 17 -7 21 -9c2 -1.33301 8 -4.66602 18 -9.99902c20 -10.667 36.833 -19 50.5 -25s27.167 -9 40.5 -9c10 0 17.667 1.16699 23 3.5s10.666 6.5 15.999 12.5l6 6c10 9.33301 17.333 20 22 32
s7 28 7 48zM185.001 741.999c-16.667 0 -30.999 -6.33301 -42.999 -19s-18 -29.334 -18 -50.001c0 -20 7.66699 -39.667 23 -59c6 -8 12.5 -14.5 19.5 -19.5s13.167 -7.5 18.5 -7.5c12 0 24.5 9.33301 37.5 28s19.5 38.334 19.5 59.001c0 21.333 -5.33301 38 -16 50
s-24.334 18 -41.001 18z" />
    <glyph glyph-name="k" unicode="k" horiz-adv-x="664" 
d="M233 160v107.999h26c11.333 0 25.166 -5.16699 41.499 -15.5s31.833 -25.833 46.5 -46.5c12 -16 29.667 -43.667 53 -83c17.333 -30 32 -53.833 44 -71.5s23.667 -32.167 35 -43.5l3 -3c6.66699 -7.33301 13.667 -11 21 -11c3.33301 0 7.16602 1 11.499 3s9.5 5 15.5 9
l2 1l101 63c7.33301 4.66699 11 11 11 19c0 4.66699 -1.16699 9.33398 -3.5 14.001s-5.83301 7 -10.5 7c-4 0 -10 -1.66699 -18 -5c-9.33301 -4 -17 -6 -23 -6c-16.667 0 -30.167 6 -40.5 18s-22.166 30.667 -35.499 56c-10.667 19.333 -19.334 33.666 -26.001 42.999
c-10 14 -28.667 32.667 -56 56c-3.33301 2.66699 -8.66602 7.33398 -15.999 14.001c-5.33301 4.66699 -8 8 -8 10s3.33301 4.33301 10 7l5 2c37.333 13.333 66.666 29.5 87.999 48.5s32 40.167 32 63.5c0 13.333 -4.5 27.166 -13.5 41.499s-20.833 28.833 -35.5 43.5
c-14 14 -27 25 -39 33s-23 12 -33 12c-37.333 0 -69.666 -6.16699 -96.999 -18.5s-57.666 -30.833 -90.999 -55.5v222c0 5.33301 -1 11 -3 17s-4.66699 10.333 -8 13l-48 41c-6.66699 5.33301 -13 8 -19 8c-4.66699 0 -10.334 -1.66699 -17.001 -5l-100 -48
c-6 -2.66699 -10.5 -5.5 -13.5 -8.5s-4.5 -7.16699 -4.5 -12.5c0 -4 1.66699 -7.66699 5 -11s6.66602 -5 9.99902 -5c4.66699 0 11 1 19 3c6 1.33301 10.667 2 14 2c12.667 0 23.834 -6.16699 33.501 -18.5s14.5 -27.166 14.5 -44.499v-538c0 -14.667 1.5 -25.167 4.5 -31.5
s7.16699 -11.833 12.5 -16.5l52 -41c6 -5.33301 12.333 -8 19 -8c4 0 8.66699 1.66699 14 5l95 58c6.66699 4 11.334 8.16699 14.001 12.5s4 10.833 4 19.5c0 2 -1.66699 5.16699 -5 9.5s-6 6.5 -8 6.5c-4.66699 0 -11.667 -1.66699 -21 -5c-10 -4 -17.333 -6 -22 -6
c-28 0 -42 23 -42 69zM347 461.999c19.333 0 36.501 -4.83203 51.501 -14.499s22.5 -26.834 22.5 -51.501c0 -19.333 -9 -37.5 -27 -54.5s-39 -25.5 -63 -25.5c-36.667 0 -62.167 1.33301 -76.5 4s-21.5 8.66699 -21.5 18v41c7.33301 22 22.166 41.333 44.499 58
s45.5 25 69.5 25z" />
    <glyph glyph-name="l" unicode="l" horiz-adv-x="351" 
d="M233 154v534.999c0 5.33301 -1 11 -3 17s-4.66699 10.333 -8 13l-48 41c-6.66699 5.33301 -13 8 -19 8c-4.66699 0 -10.334 -1.66699 -17.001 -5l-100 -48c-6 -2.66699 -10.5 -5.5 -13.5 -8.5s-4.5 -7.16699 -4.5 -12.5c0 -4 1.66699 -7.66699 5 -11
s6.66602 -5 9.99902 -5c4.66699 0 11 1 19 3c6 1.33301 10.667 2 14 2c12.667 0 23.834 -6.16699 33.501 -18.5s14.5 -27.166 14.5 -44.499v-538c0 -14.667 1.5 -25.167 4.5 -31.5s7.16699 -11.833 12.5 -16.5l52 -41c6 -5.33301 12.333 -8 19 -8c4 0 8.66699 1.66699 14 5
l95 58c6.66699 4 11.334 8.16699 14.001 12.5s4 10.833 4 19.5c0 2 -1.66699 5.16699 -5 9.5s-6 6.5 -8 6.5c-4.66699 0 -11.667 -1.66699 -21 -5c-10 -4 -17.333 -6 -22 -6c-28 0 -42 23 -42 69z" />
    <glyph glyph-name="m" unicode="m" horiz-adv-x="934" 
d="M524 158l0.000976562 252.999v1c11.333 18 22.833 32 34.5 42s28.834 15 51.501 15c24 0 44.833 -10.167 62.5 -30.5s26.5 -45.166 26.5 -74.499v-278c0 -14.667 1.5 -25.167 4.5 -31.5s7.16699 -11.833 12.5 -16.5l52 -41c6 -5.33301 12.333 -8 19 -8
c4 0 8.66699 1.66699 14 5l95 58c6.66699 4 11.334 8.16699 14.001 12.5s4 10.833 4 19.5c0 2 -1.66699 5.16699 -5 9.5s-6 6.5 -8 6.5c-4.66699 0 -11.667 -1.66699 -21 -5c-10 -4 -17.333 -6 -22 -6c-28 0 -42 23 -42 69v258c0 8 -4.33301 19.5 -13 34.5
s-20.334 30.333 -35.001 46s-31.334 28.667 -50.001 39s-38 15.5 -58 15.5c-13.333 0 -26.833 -2.66699 -40.5 -8s-30.5 -13 -50.5 -23c-18.667 -10 -34.5 -17.667 -47.5 -23s-26.5 -9 -40.5 -11v-1c-17.333 18.667 -35 33.667 -53 45s-38.333 17 -61 17
c-14.667 0 -29 -2.66699 -43 -8s-31 -13.333 -51 -24s-35.667 -18.334 -47 -23.001l-3 3l-1 1l-48 41c-6.66699 5.33301 -13 8 -19 8c-4.66699 0 -10.334 -1.66699 -17.001 -5l-100 -48c-6 -2.66699 -10.5 -5.5 -13.5 -8.5s-4.5 -7.16699 -4.5 -12.5
c0 -4 1.66699 -7.66699 5 -11s6.66602 -5 9.99902 -5c4.66699 0 11 1 19 3c6 1.33301 10.667 2 14 2c12.667 0 23.834 -6.16699 33.501 -18.5s14.5 -27.166 14.5 -44.499v-311c0 -14.667 1.5 -25.167 4.5 -31.5s7.16699 -11.833 12.5 -16.5l52 -41
c6 -5.33301 12.333 -8 19 -8c4 0 8.66699 1.66699 14 5l95 58c6.66699 4 11.334 8.16699 14.001 12.5s4 10.833 4 19.5c0 2 -1.66699 5.16699 -5 9.5s-6 6.5 -8 6.5c-4.66699 0 -11.667 -1.66699 -21 -5c-10 -4 -17.333 -6 -22 -6c-28 0 -42 23 -42 69v255
c10 16.667 20.667 29.5 32 38.5s28.666 13.5 51.999 13.5c25.333 0 46.666 -12 63.999 -36s26 -53 26 -87v-256c0 -14.667 1.5 -25.167 4.5 -31.5s7.16699 -11.833 12.5 -16.5l52 -41c6 -5.33301 12.333 -8 19 -8c4 0 8.66699 1.66699 14 5l95 58
c6.66699 4 11.334 8.16699 14.001 12.5s4 10.833 4 19.5c0 2 -1.66699 5.16699 -5 9.5s-6 6.5 -8 6.5c-4.66699 0 -11.667 -1.66699 -21 -5c-10 -4 -17.333 -6 -22 -6c-28 0 -42 23 -42 69z" />
    <glyph glyph-name="n" unicode="n" horiz-adv-x="671" 
d="M233 158v236l8 11c15.333 20 30.166 35.167 44.499 45.5s34.5 15.5 60.5 15.5c24 0 45 -10.833 63 -32.5s27 -47.834 27 -78.501v-268c0 -14.667 1.5 -25.167 4.5 -31.5s7.16699 -11.833 12.5 -16.5l52 -41c6 -5.33301 12.333 -8 19 -8c4 0 8.66699 1.66699 14 5l95 58
c6.66699 4 11.334 8.16699 14.001 12.5s4 10.833 4 19.5c0 2 -1.66699 5.16699 -5 9.5s-6 6.5 -8 6.5c-4.66699 0 -11.667 -1.66699 -21 -5c-10 -4 -17.333 -6 -22 -6c-28 0 -42 23 -42 69v253c0 9.33301 -5 21.666 -15 36.999s-22.667 30.833 -38 46.5
s-31.5 28.667 -48.5 39s-32.167 15.5 -45.5 15.5c-26 0 -47.667 -3.33301 -65 -10s-36 -16 -56 -28c-23.333 -14.667 -42 -23.667 -56 -27c-2 4.66699 -4.33301 8.33398 -7 11.001l-48 41c-6.66699 5.33301 -13 8 -19 8c-4.66699 0 -10.334 -1.66699 -17.001 -5l-100 -48
c-6 -2.66699 -10.5 -5.5 -13.5 -8.5s-4.5 -7.16699 -4.5 -12.5c0 -4 1.66699 -7.66699 5 -11s6.66602 -5 9.99902 -5c4.66699 0 11 1 19 3c6 1.33301 10.667 2 14 2c12.667 0 23.834 -6.16699 33.501 -18.5s14.5 -27.166 14.5 -44.499v-311c0 -14.667 1.5 -25.167 4.5 -31.5
s7.16699 -11.833 12.5 -16.5l52 -41c6 -5.33301 12.333 -8 19 -8c4 0 8.66699 1.66699 14 5l95 58c6.66699 4 11.334 8.16699 14.001 12.5s4 10.833 4 19.5c0 2 -1.66699 5.16699 -5 9.5s-6 6.5 -8 6.5c-4.66699 0 -11.667 -1.66699 -21 -5c-10 -4 -17.333 -6 -22 -6
c-28 0 -42 23 -42 69z" />
    <glyph glyph-name="o" unicode="o" horiz-adv-x="527" 
d="M261 544c-29.333 0 -57.3301 -8.16699 -83.9971 -24.5s-52.334 -39.5 -77.001 -69.5c-24 -29.333 -43.333 -59 -58 -89s-22 -61 -22 -93c0 -50 7 -92.833 21 -128.5s32.667 -64.167 56 -85.5s49 -36.833 77 -46.5s57 -14.5 87 -14.5c31.333 0 62 9.66699 92 29
s56.5 44.5 79.5 75.5s41.167 63 54.5 96s20 62.167 20 87.5c0 44 -6.33301 82.833 -19 116.5s-30.334 61.167 -53.001 82.5s-48.834 37.333 -78.501 48s-61.5 16 -95.5 16zM238.003 461c17.333 0 35.499 -6.83203 54.499 -20.499s36.667 -31.667 53 -54
s29.5 -46.833 39.5 -73.5s15 -52.334 15 -77.001c0 -48 -11.167 -85.5 -33.5 -112.5s-47.833 -40.5 -76.5 -40.5c-17.333 0 -35.666 6 -54.999 18s-37.333 28.167 -54 48.5s-30.167 43 -40.5 68s-15.5 49.833 -15.5 74.5c0 52.667 9.66699 94 29 124s47.333 45 84 45z" />
    <glyph glyph-name="p" unicode="p" horiz-adv-x="598" 
d="M233 -61l-0.000976562 80.999c0 6 2 9 6 9c2.66699 0 10 -4 22 -12c12 -8.66699 22.5 -15.334 31.5 -20.001s17.5 -7 25.5 -7c24 0 52.167 10.167 84.5 30.5s61.5 46.833 87.5 79.5c26.667 34 48 72.167 64 114.5s24 82.5 24 120.5c0 64.667 -19.667 115.167 -59 151.5
s-87.666 54.5 -144.999 54.5c-24 0 -48.333 -5.33301 -73 -16s-48 -25.667 -70 -45c-2 8 -5 13.333 -9 16l-48 41c-6.66699 5.33301 -13 8 -19 8c-4.66699 0 -10.334 -1.66699 -17.001 -5l-100 -48c-6 -2.66699 -10.5 -5.5 -13.5 -8.5s-4.5 -7.16699 -4.5 -12.5
c0 -4 1.66699 -7.66699 5 -11s6.66602 -5 9.99902 -5c4.66699 0 11 1 19 3c6 1.33301 10.667 2 14 2c12.667 0 23.834 -6.16699 33.501 -18.5s14.5 -27.166 14.5 -44.499v-471c0 -6 -0.5 -15.667 -1.5 -29s-2.5 -26.833 -4.5 -40.5s-4.33301 -25.5 -7 -35.5
s-5.66699 -16 -9 -18c-19.333 -12 -29 -25 -29 -39c0 -13.333 6 -20 18 -20c8.66699 0 27.667 7 57 21c22.667 10.667 40.334 18.334 53.001 23.001c13.333 4.66699 33.333 9.33398 60 14.001c23.333 4 40 8.33301 50 13s15 12.667 15 24c0 17.333 -9 26.666 -27 27.999h-9
c-17.333 0.666992 -29.833 5 -37.5 13s-11.5 27.667 -11.5 59zM339.999 468.999c10 0 21.499 -3.16797 34.499 -9.50098s25.5 -16 37.5 -29s22 -29.5 30 -49.5s12 -42.667 12 -68c0 -27.333 -3.16699 -55.166 -9.5 -83.499s-15.833 -54.333 -28.5 -78
s-27.834 -42.5 -45.501 -56.5s-37.5 -21 -59.5 -21c-16 0 -30.667 8.83301 -44 26.5s-24.666 40.5 -33.999 68.5v237c12.667 20 28.334 35.5 47.001 46.5s38.667 16.5 60 16.5z" />
    <glyph glyph-name="q" unicode="q" horiz-adv-x="577" 
d="M327 545c-32 0 -63.501 -9.33594 -94.501 -28.0029s-62.167 -43.667 -93.5 -75c-21.333 -21.333 -38.5 -39.833 -51.5 -55.5s-24.667 -32.667 -35 -51s-18.333 -38.666 -24 -60.999s-8.5 -47.166 -8.5 -74.499c0 -36 5.5 -67 16.5 -93s26 -46.833 45 -62.5
s40.833 -27 65.5 -34s51.334 -10.5 80.001 -10.5c43.333 0 86 16.333 128 49v-147c0 -6 -0.5 -15.667 -1.5 -29s-2.5 -26.833 -4.5 -40.5s-4.33301 -25.5 -7 -35.5s-5.66699 -16 -9 -18c-19.333 -12 -29 -25 -29 -39c0 -13.333 6 -20 18 -20c8.66699 0 27.667 7 57 21
c22.667 10.667 40.334 18.334 53.001 23.001c13.333 4.66699 33.333 9.33398 60 14.001c23.333 4 40 8.33301 50 13s15 12.667 15 24c0 17.333 -9 26.666 -27 27.999h-9c-17.333 0.666992 -29.833 5 -37.5 13s-11.5 27.667 -11.5 59v484c0 13.333 -1.66699 27 -5 41
s-8.66602 24.333 -15.999 31l-48 44c-0.666992 0.666992 -1.33398 1 -2.00098 1c-20.667 19.333 -45.334 29 -74.001 29zM354.999 372.997v-250c-24.667 -31.333 -53.334 -47 -86.001 -47c-37.333 0 -68.333 17.667 -93 53s-37 80 -37 134c0 26 4 51.167 12 75.5
s18.833 45.833 32.5 64.5s29.334 33.5 47.001 44.5s35.5 16.5 53.5 16.5c23.333 0 41 -9.66699 53 -29s18 -40 18 -62z" />
    <glyph glyph-name="r" unicode="r" horiz-adv-x="476" 
d="M233 158l-0.000976562 236c1.33301 2 3.33301 4.66699 6 8c14 18 26.833 31.333 38.5 40s27.167 13 46.5 13c13.333 0 25.833 -6.66699 37.5 -20s17.5 -35.666 17.5 -66.999c0 -4 1.66699 -8 5 -12s7.33301 -6 12 -6c6 0 12.333 5.66699 19 17
c3.33301 5.33301 7 12 11 20s8.5 18.167 13.5 30.5s9 24.666 12 36.999s4.5 24.166 4.5 35.499c0 5.33301 -1.5 10.666 -4.5 15.999s-6.5 9.33301 -10.5 12c-12 8.66699 -23.667 15.667 -35 21s-21.666 8 -30.999 8c-16.667 0 -31.167 -2.66699 -43.5 -8
s-26.5 -13.333 -42.5 -24c-24 -16 -44 -26 -60 -30c-2 4.66699 -4.33301 8.33398 -7 11.001l-48 41c-6.66699 5.33301 -13 8 -19 8c-4.66699 0 -10.334 -1.66699 -17.001 -5l-100 -48c-6 -2.66699 -10.5 -5.5 -13.5 -8.5s-4.5 -7.16699 -4.5 -12.5
c0 -4 1.66699 -7.66699 5 -11s6.66602 -5 9.99902 -5c4.66699 0 11 1 19 3c6 1.33301 10.667 2 14 2c12.667 0 23.834 -6.16699 33.501 -18.5s14.5 -27.166 14.5 -44.499v-311c0 -14.667 1.5 -25.167 4.5 -31.5s7.16699 -11.833 12.5 -16.5l52 -41
c6 -5.33301 12.333 -8 19 -8c4 0 8.66699 1.66699 14 5l95 58c6.66699 4 11.334 8.16699 14.001 12.5s4 10.833 4 19.5c0 2 -1.66699 5.16699 -5 9.5s-6 6.5 -8 6.5c-4.66699 0 -11.667 -1.66699 -21 -5c-10 -4 -17.333 -6 -22 -6c-28 0 -42 23 -42 69z" />
    <glyph glyph-name="s" unicode="s" horiz-adv-x="458" 
d="M394 472c0 16.667 -4.33105 30.165 -12.998 40.498s-19.834 18 -33.501 23s-27.5 8.16699 -41.5 9.5s-29.333 2 -46 2c-16 0 -35.833 -3.16699 -59.5 -9.5s-46.834 -16.166 -69.501 -29.499s-41.667 -30.5 -57 -51.5s-23 -45.5 -23 -73.5c0 -28.667 5.5 -52.5 16.5 -71.5
s25.5 -34 43.5 -45s36.333 -19 55 -24s43.334 -10.5 74.001 -16.5c39.333 -8 68.166 -16.167 86.499 -24.5s27.5 -22.5 27.5 -42.5c0 -13.333 -4.5 -24.666 -13.5 -33.999s-20.5 -16.666 -34.5 -21.999s-28.667 -9 -44 -11s-30.333 -3 -45 -3c-14 0 -28 1.16699 -42 3.5
s-26.833 6 -38.5 11s-21.167 12.167 -28.5 21.5s-11 21 -11 35c0 10 -1.5 18.333 -4.5 25s-9.83301 10 -20.5 10c-6 0 -10.833 -2.33301 -14.5 -7s-7.5 -11.667 -11.5 -21c-0.666992 -2 -1.66699 -4.66699 -3 -8c-6.66699 -15.333 -12.167 -30.166 -16.5 -44.499
s-6.5 -24.833 -6.5 -31.5c0 -17.333 5 -31.833 15 -43.5s23.5 -20.834 40.5 -27.501s35.333 -11.334 55 -14.001s40.834 -4 63.501 -4c34 0 65.833 5.16699 95.5 15.5s55.667 25.166 78 44.499s39.666 42.5 51.999 69.5s18.5 56.833 18.5 89.5c0 24 -5 44 -15 60
s-23.333 28.5 -40 37.5s-34.167 15.833 -52.5 20.5s-41.833 9.33398 -70.5 14.001c-42 7.33301 -72.833 15.5 -92.5 24.5s-29.5 23.833 -29.5 44.5c0 18.667 10.5 32.667 31.5 42s43.5 14 67.5 14c21.333 0 41.833 -6.33301 61.5 -19s29.5 -27.667 29.5 -45
c0 -10 1.66699 -17.167 5 -21.5s8 -6.5 14 -6.5c14 0 25.333 9.16699 34 27.5s13 40.5 13 66.5z" />
    <glyph glyph-name="t" unicode="t" horiz-adv-x="337" 
d="M205 157l0.00195312 260.001c0 48.667 27.333 73 82 73c8 0 15 2.5 21 7.5s9 9.16699 9 12.5c0 8.66699 -2.83301 15.834 -8.5 21.501s-12.834 8.5 -21.501 8.5s-19 -1.33301 -31 -4c-8 -1.33301 -14 -2 -18 -2c-8.66699 0 -14.334 1 -17.001 3s-4 5 -4 9
c0 10 4 27 12 51c10 29.333 15 51.666 15 66.999c0 6.66699 -1.5 12.667 -4.5 18s-6.83301 8 -11.5 8s-9.66699 -2.83301 -15 -8.5s-13.333 -15.167 -24 -28.5c-19.333 -26.667 -36 -46.334 -50 -59.001c-16.667 -14.667 -40.667 -31.334 -72 -50.001
c-16.667 -9.33301 -28.667 -17.166 -36 -23.499s-11 -12.833 -11 -19.5c0 -6 1.5 -11.167 4.5 -15.5s8.5 -6.5 16.5 -6.5c1.33301 0 4.66602 0.666992 9.99902 2c10 1.33301 16.667 2 20 2c5.33301 0 9.5 -2.66699 12.5 -8s4.5 -11.333 4.5 -18v-372
c0 -14.667 1.5 -25.167 4.5 -31.5s7.16699 -11.833 12.5 -16.5l52 -41c6 -5.33301 12.333 -8 19 -8c4 0 8.66699 1.66699 14 5l95 58c6.66699 4 11.334 8.16699 14.001 12.5s4 10.833 4 19.5c0 2 -1.66699 5.16699 -5 9.5s-6 6.5 -8 6.5c-4.66699 0 -11.667 -1.66699 -21 -5
c-10 -4 -17.333 -6 -22 -6c-28 0 -42 23 -42 69z" />
    <glyph glyph-name="u" unicode="u" horiz-adv-x="667" 
d="M549 160l0.00195312 307.995c0 5.33301 -1 11 -3 17s-4.66699 10.333 -8 13l-48 41c-6.66699 5.33301 -13 8 -19 8c-4.66699 0 -10.334 -1.66699 -17.001 -5l-100 -48c-6 -2.66699 -10.5 -5.5 -13.5 -8.5s-4.5 -7.16699 -4.5 -12.5c0 -4 1.66699 -7.66699 5 -11
s6.66602 -5 9.99902 -5c4.66699 0 11 1 19 3c6 1.33301 10.667 2 14 2c12.667 0 23.834 -6.16699 33.501 -18.5s14.5 -27.166 14.5 -44.499v-242c-16 -22 -34.167 -39.5 -54.5 -52.5s-41.5 -19.5 -63.5 -19.5s-41 8.33301 -57 25s-24 34.334 -24 53.001v305
c0 5.33301 -1 11 -3 17s-4.66699 10.333 -8 13l-48 41c-6.66699 5.33301 -13 8 -19 8c-4.66699 0 -10.334 -1.66699 -17.001 -5l-100 -48c-6 -2.66699 -10.5 -5.5 -13.5 -8.5s-4.5 -7.16699 -4.5 -12.5c0 -4 1.66699 -7.66699 5 -11s6.66602 -5 9.99902 -5
c4.66699 0 11 1 19 3c6 1.33301 10.667 2 14 2c12.667 0 23.834 -6.16699 33.501 -18.5s14.5 -27.166 14.5 -44.499v-234c0 -24.667 4 -44.834 12 -60.501s20 -30.5 36 -44.5c16.667 -14.667 34.5 -27 53.5 -37s34.5 -15 46.5 -15
c19.333 0.666992 38.166 4.83398 56.499 12.501s40.5 18.834 66.5 33.501l45 25c0.666992 -11.333 2.5 -19.666 5.5 -24.999s6.83301 -10 11.5 -14l52 -41c6 -5.33301 12.333 -8 19 -8c4 0 8.66699 1.66699 14 5l95 58c6.66699 4 11.334 8.16699 14.001 12.5
s4 10.833 4 19.5c0 2 -1.66699 5.16699 -5 9.5s-6 6.5 -8 6.5c-4.66699 0 -11.667 -1.66699 -21 -5c-10 -4 -17.333 -6 -22 -6c-28 0 -42 23 -42 69z" />
    <glyph glyph-name="v" unicode="v" horiz-adv-x="564" 
d="M143 120c0.666992 -14.667 2.50098 -25.5039 5.50098 -32.5039s6.83301 -12.167 11.5 -15.5l87 -63c6 -4 12.5 -7.5 19.5 -10.5s15.833 -4.5 26.5 -4.5c14 0 27.833 4.83301 41.5 14.5s32.167 25.5 55.5 47.5c25.333 24 47.5 47.167 66.5 69.5s34.5 45.833 46.5 70.5
c13.333 26.667 23.5 55 30.5 85s10.5 57.667 10.5 83c0 16.667 -1 34.834 -3 54.501s-6 39.334 -12 59.001s-15.167 36.334 -27.5 50.001s-28.5 20.5 -48.5 20.5c-12 0 -25.167 -1 -39.5 -3s-28 -5.16699 -41 -9.5s-23.667 -9.66602 -32 -15.999s-12.5 -13.5 -12.5 -21.5
c0 -6.66699 3.5 -11.167 10.5 -13.5s15.5 -3.5 25.5 -3.5c15.333 0 29 -5.5 41 -16.5s21.833 -25 29.5 -42s13.167 -34.833 16.5 -53.5s5 -35.667 5 -51c0 -34 -7 -71 -21 -111s-32.667 -70.667 -56 -92l-5 -5c-9.33301 -8.66699 -17.666 -15.5 -24.999 -20.5
s-15.666 -7.5 -24.999 -7.5c-16.667 0 -30.5 8.33301 -41.5 25s-18.167 44 -21.5 82l-23 286c-0.666992 6.66699 -1.83398 12.667 -3.50098 18s-4.16699 9.33301 -7.5 12l-48 41c-6.66699 5.33301 -13 8 -19 8c-4.66699 0 -10.334 -1.66699 -17.001 -5l-101 -58
c-9.33301 -5.33301 -15.333 -9.33301 -18 -12s-4 -7 -4 -13c0 -4 2.33301 -8 7 -12s8.66699 -6 12 -6c4.66699 0 11.334 1.33301 20.001 4c6.66699 2.66699 11.667 4 15 4c13.333 0 24.166 -3.83301 32.499 -11.5s13.166 -20.5 14.499 -38.5z" />
    <glyph glyph-name="w" unicode="w" horiz-adv-x="834" 
d="M173 546c-6.66699 5.33301 -13 7.99707 -19 7.99707c-4.66699 0 -10.334 -1.66699 -17.001 -5l-101 -58c-10.667 -6 -16 -16.667 -16 -32c0 -4 2.66699 -7.5 8 -10.5s10 -4.5 14 -4.5c4.66699 0 11.667 2 21 6c7.33301 3.33301 12.666 5 15.999 5
c12 0 20.333 -3.33301 25 -10s8.33398 -19.667 11.001 -39l43 -281c2 -14 6.16699 -25.5 12.5 -34.5s12.5 -15.833 18.5 -20.5l73 -56c6 -4 13.333 -8 22 -12s17 -6 25 -6c19.333 0 39.333 8.83301 60 26.5s40.667 41.167 60 70.5c5.33301 8.66699 10 13 14 13
c1.33301 0 3 -3.33301 5 -10c0.666992 -1.33301 1 -2.33301 1 -3c2 -7.33301 5 -13 9 -17l73 -67c10 -10 25.333 -15 46 -15c14.667 0 31.334 6.33301 50.001 19s37.834 29.334 57.501 50.001s37.834 42.667 54.501 66s30 45.333 40 66
c12.667 25.333 21.667 53.166 27 83.499s8 59.5 8 87.5c0 16.667 -1 34.834 -3 54.501s-6 39.334 -12 59.001s-15.167 36.334 -27.5 50.001s-28.5 20.5 -48.5 20.5c-12 0 -25.167 -1 -39.5 -3s-28 -5.16699 -41 -9.5s-23.667 -9.66602 -32 -15.999s-12.5 -13.5 -12.5 -21.5
c0 -6.66699 3.5 -11.167 10.5 -13.5s15.5 -3.5 25.5 -3.5c15.333 0 29 -5.5 41 -16.5s21.833 -25 29.5 -42s13.167 -34.833 16.5 -53.5s5 -35.667 5 -51c0 -20 -2.66699 -43.167 -8 -69.5s-13 -52 -23 -77s-21.833 -45.5 -35.5 -61.5s-28.5 -24 -44.5 -24
c-16.667 0 -28.834 5.5 -36.501 16.5s-14.167 37.167 -19.5 78.5l-37 292c-0.666992 6.66699 -1.83398 12.667 -3.50098 18s-4.16699 9.33301 -7.5 12l-48 41c-6.66699 5.33301 -13 8 -19 8s-11.667 -1.66699 -17 -5l-100 -66c-8 -5.33301 -13.333 -10.333 -16 -15
s-4 -10.334 -4 -17.001c0 -4 2.16699 -8 6.5 -12s8.16602 -6 11.499 -6c4.66699 0 12.334 3 23.001 9c8 5.33301 13.667 8 17 8c22.667 0 36 -14.667 40 -44l23 -173c-10.667 -39.333 -23 -71.5 -37 -96.5s-30.333 -37.5 -49 -37.5c-17.333 0 -31.166 6.33301 -41.499 19
s-18.5 38 -24.5 76l-44 281c-0.666992 6.66699 -1.83398 12.667 -3.50098 18s-4.16699 9.33301 -7.5 12z" />
    <glyph glyph-name="x" unicode="x" horiz-adv-x="565" 
d="M421 -14c4 0 8.66895 1.66309 14.002 4.99609l95 58c10 6.66699 15 15.334 15 26.001c0 3.33301 -1.33301 6.16602 -4 8.49902s-8.66699 3.83301 -18 4.5c-15.333 0.666992 -29.166 6.16699 -41.499 16.5s-25.5 25.5 -39.5 45.5l-107 151
c18.667 10.667 37 22.334 55 35.001s35.167 27.834 51.5 45.501s29.666 37.334 39.999 59.001s15.5 44.834 15.5 69.501c0 7.33301 -3.5 15.833 -10.5 25.5s-13.833 14.5 -20.5 14.5c-12.667 0 -27 -1.83301 -43 -5.5s-30.667 -8.16699 -44 -13.5
c-12.667 -5.33301 -21.834 -10.5 -27.501 -15.5s-8.5 -12.5 -8.5 -22.5c0 -6 1.66699 -10 5 -12s8.33301 -4 15 -6c9.33301 -2 16.333 -4.83301 21 -8.5s7 -11.167 7 -22.5c0 -19.333 -7 -37 -21 -53s-34 -34.333 -60 -55l-145 206c-4.66699 5.33301 -11 8 -19 8
c-6 0 -11.667 -1.66699 -17 -5l-79 -50c-6.66699 -4 -13.334 -9 -20.001 -15s-10 -11.667 -10 -17c0 -4 1.83301 -7.66699 5.5 -11s7.5 -5 11.5 -5s9.66699 1.33301 17 4c6.66699 2 11.667 3 15 3c4.66699 0 11.167 -4.33301 19.5 -13s17.166 -20 26.499 -34l88 -127
c-61.333 -41.333 -105.333 -80 -132 -116s-40 -78.333 -40 -127c0 -10.667 2.16699 -19.5 6.5 -26.5s13.5 -10.5 27.5 -10.5c10.667 0 22.167 1.66699 34.5 5s25.166 7.66602 38.499 12.999c12.667 5.33301 22.5 10.5 29.5 15.5s10.5 10.5 10.5 16.5
c0 4.66699 -1.66699 8 -5 10s-8.66602 3.66699 -15.999 5c-10.667 2.66699 -19 6.33398 -25 11.001s-9 13 -9 25c0 22 10.333 44.333 31 67s47.334 45 80.001 67l168 -241c1.33301 -2 4 -3.83301 8 -5.5s7.66699 -2.5 11 -2.5z" />
    <glyph glyph-name="y" unicode="y" horiz-adv-x="569" 
d="M549 -113l0.00195312 579c0 5.33301 -1 11 -3 17s-4.66699 10.333 -8 13l-48 41c-6.66699 5.33301 -13 8 -19 8c-4.66699 0 -10.334 -1.66699 -17.001 -5l-100 -48c-6 -2.66699 -10.5 -5.5 -13.5 -8.5s-4.5 -7.16699 -4.5 -12.5c0 -4 1.66699 -7.66699 5 -11
s6.66602 -5 9.99902 -5c4.66699 0 11 1 19 3c6 1.33301 10.667 2 14 2c12.667 0 23.834 -6.16699 33.501 -18.5s14.5 -27.166 14.5 -44.499v-242c-11.333 -24.667 -27.666 -43.167 -48.999 -55.5s-44.333 -18.5 -69 -18.5c-22 0 -41 8.66699 -57 26s-24 35.333 -24 54v305
c0 5.33301 -1 11 -3 17s-4.66699 10.333 -8 13l-48 41c-6.66699 5.33301 -13 8 -19 8c-4.66699 0 -10.334 -1.66699 -17.001 -5l-100 -48c-6 -2.66699 -10.5 -5.5 -13.5 -8.5s-4.5 -7.16699 -4.5 -12.5c0 -4 1.66699 -7.66699 5 -11s6.66602 -5 9.99902 -5
c4.66699 0 11 1 19 3c6 1.33301 10.667 2 14 2c12.667 0 23.834 -6.16699 33.501 -18.5s14.5 -27.166 14.5 -44.499v-234c0 -24.667 4 -44.834 12 -60.501s20 -30.5 36 -44.5c13.333 -12 28.666 -23 45.999 -33c-45.333 -10.667 -81.5 -29.5 -108.5 -56.5
s-40.5 -57.5 -40.5 -91.5c0 -23.333 3.16699 -44 9.5 -62s18 -33.833 35 -47.5s41.667 -24.334 74 -32.001s73.833 -11.5 124.5 -11.5c74.667 0 134.167 13.333 178.5 40s66.5 67.667 66.5 123zM304.002 -213c-33.333 0 -59.667 11.498 -79 34.498s-29 49.5 -29 79.5
c0 21.333 9.83301 42 29.5 62s45.167 38 76.5 54c20.667 10 42.5 18.833 65.5 26.5s44.5 13.834 64.5 18.501v-182c0 -25.333 -12.667 -47.166 -38 -65.499s-55.333 -27.5 -90 -27.5z" />
    <glyph glyph-name="z" unicode="z" horiz-adv-x="496" 
d="M20 33c0 -12 5.16797 -20.499 15.501 -25.499s21.833 -7.5 34.5 -7.5c14 0 35.333 3 64 9c29.333 6 52 9 68 9s41.667 -3 77 -9c38 -6 66.333 -9 85 -9c40.667 0 69.5 8.5 86.5 25.5s25.5 50.167 25.5 99.5c0 11.333 -1.66699 22 -5 32s-8.33301 15 -15 15
c-10 0 -17.333 -2.66699 -22 -8s-9.33398 -14.333 -14.001 -27c-3.33301 -10 -6.66602 -18 -9.99902 -24s-8.5 -12.167 -15.5 -18.5s-16.5 -11.333 -28.5 -15s-27 -5.5 -45 -5.5c-14.667 0 -39.667 0.666992 -75 2c-26 0.666992 -43.667 1 -53 1s-14 4.66699 -14 14
c0 6.66699 2.33301 14 7 22c22 34.667 59 84.667 111 150c36 44.667 65 82.334 87 113.001s41.667 62.667 59 96c6.66699 13.333 10 24.666 10 33.999c0 8 -3.66699 14.167 -11 18.5s-19.333 6.5 -36 6.5c-4 0 -13 -1 -27 -3c-20.667 -2.66699 -35.334 -4 -44.001 -4
c-22 0 -54.333 2.66699 -97 8c-39.333 4.66699 -69 7 -89 7c-26.667 0 -47.167 -1 -61.5 -3s-25 -6 -32 -12s-11.5 -14.333 -13.5 -25s-3 -26.667 -3 -48c0 -18.667 2.33301 -34.834 7 -48.501s12.667 -20.5 24 -20.5c9.33301 0 15.666 2.33301 18.999 7s6 12 8 22
s4.5 18.333 7.5 25s8.33301 13.167 16 19.5s19.167 11.5 34.5 15.5s35.333 6 60 6c6.66699 0 14.5 -0.166992 23.5 -0.5s18 -1.16602 27 -2.49902s16.333 -3.33301 22 -6s8.5 -6 8.5 -10c0 -4.66699 -1.66699 -9.83398 -5 -15.501s-6.66602 -10.167 -9.99902 -13.5
c-26 -26 -54.167 -57.833 -84.5 -95.5s-59 -76.5 -86 -116.5s-48.833 -76.333 -65.5 -109s-25 -57.667 -25 -75z" />
    <glyph glyph-name="quoteleft" unicode="&#xeb;" 
d="M104 770c-10.667 0 -21.165 -3.50195 -31.498 -10.502s-19.5 -16.333 -27.5 -28s-14.167 -24 -18.5 -37s-6.5 -24.833 -6.5 -35.5c0 -18 3.16699 -36.333 9.5 -55s14.666 -35.834 24.999 -51.501s21.166 -28.167 32.499 -37.5s21.666 -14 30.999 -14c5.33301 0 10 1 14 3
s6 5 6 9c0 6.66699 -5 14 -15 22c-8.66699 6.66699 -15.167 13.334 -19.5 20.001s-6.5 16.334 -6.5 29.001v16c20.667 0 37.834 8.33301 51.501 25s20.5 37.334 20.5 62.001c0 23.333 -6.33301 43 -19 59s-28 24 -46 24z" />
    <glyph glyph-name="quoteright" unicode="&#xed;" 
d="M85 767c-18 0 -33.3311 -8 -45.998 -24s-19 -35.667 -19 -59c0 -24.667 6.83301 -45.334 20.5 -62.001s30.834 -25 51.501 -25v-16c0 -12.667 -2.33301 -22.5 -7 -29.5s-11 -13.5 -19 -19.5c-10 -8 -15 -15.333 -15 -22c0 -4 2.16699 -7 6.5 -9s8.83301 -3 13.5 -3
c9.33301 0 19.666 4.66699 30.999 14s22.166 21.833 32.499 37.5s18.666 32.834 24.999 51.501s9.5 37 9.5 55c0 10.667 -2.16699 22.5 -6.5 35.5s-10.5 25.333 -18.5 37s-17 21 -27 28s-20.667 10.5 -32 10.5z" />
    <glyph glyph-name="quotedblleft" unicode="&#xec;" horiz-adv-x="358" 
d="M273 770c-10.667 0 -21.165 -3.50195 -31.498 -10.502s-19.5 -16.333 -27.5 -28s-14.167 -24 -18.5 -37s-6.5 -24.833 -6.5 -35.5c0 -18 3.16699 -36.333 9.5 -55s14.666 -35.834 24.999 -51.501s21.166 -28.167 32.499 -37.5s21.666 -14 30.999 -14c5.33301 0 10 1 14 3
s6 5 6 9c0 6.66699 -5 14 -15 22c-8.66699 6.66699 -15.167 13.334 -19.5 20.001s-6.5 16.334 -6.5 29.001v16c20.667 0 37.834 8.33301 51.501 25s20.5 37.334 20.5 62.001c0 23.333 -6.33301 43 -19 59s-28 24 -46 24zM104.002 769.998
c-10.667 0 -21.165 -3.50195 -31.498 -10.502s-19.5 -16.333 -27.5 -28s-14.167 -24 -18.5 -37s-6.5 -24.833 -6.5 -35.5c0 -18 3.16699 -36.333 9.5 -55s14.666 -35.834 24.999 -51.501s21.166 -28.167 32.499 -37.5s21.666 -14 30.999 -14c5.33301 0 10 1 14 3s6 5 6 9
c0 6.66699 -5 14 -15 22c-8.66699 6.66699 -15.167 13.334 -19.5 20.001s-6.5 16.334 -6.5 29.001v16c20.667 0 37.834 8.33301 51.501 25s20.5 37.334 20.5 62.001c0 23.333 -6.33301 43 -19 59s-28 24 -46 24z" />
    <glyph glyph-name="quotedblright" unicode="&#xee;" horiz-adv-x="358" 
d="M85 767c-18 0 -33.3311 -8 -45.998 -24s-19 -35.667 -19 -59c0 -24.667 6.83301 -45.334 20.5 -62.001s30.834 -25 51.501 -25v-16c0 -12.667 -2.33301 -22.5 -7 -29.5s-11 -13.5 -19 -19.5c-10 -8 -15 -15.333 -15 -22c0 -4 2.16699 -7 6.5 -9s8.83301 -3 13.5 -3
c9.33301 0 19.666 4.66699 30.999 14s22.166 21.833 32.499 37.5s18.666 32.834 24.999 51.501s9.5 37 9.5 55c0 10.667 -2.16699 22.5 -6.5 35.5s-10.5 25.333 -18.5 37s-17 21 -27 28s-20.667 10.5 -32 10.5zM254.002 767c-18 0 -33.3311 -8 -45.998 -24
s-19 -35.667 -19 -59c0 -24.667 6.83301 -45.334 20.5 -62.001s30.834 -25 51.501 -25v-16c0 -12.667 -2.33301 -22.5 -7 -29.5s-11 -13.5 -19 -19.5c-10 -8 -15 -15.333 -15 -22c0 -4 2.16699 -7 6.5 -9s8.83301 -3 13.5 -3c9.33301 0 19.666 4.66699 30.999 14
s22.166 21.833 32.499 37.5s18.666 32.834 24.999 51.501s9.5 37 9.5 55c0 10.667 -2.16699 22.5 -6.5 35.5s-10.5 25.333 -18.5 37s-17 21 -27 28s-20.667 10.5 -32 10.5z" />
    <glyph glyph-name="alt_a" unicode="&#xe6;" horiz-adv-x="588" 
d="M470 154l-0.000976562 238.001c0 24.667 -4.66699 44.667 -14 60s-22.666 30.333 -39.999 45c-16.667 14 -33.834 25.333 -51.501 34s-32.834 13 -45.501 13c-26.667 0 -54.667 -8.33301 -84 -25s-59.333 -39.667 -90 -69c-37.333 -35.333 -67.5 -74 -90.5 -116
s-34.5 -86.667 -34.5 -134c0 -24.667 3.83301 -49.667 11.5 -75s18.834 -48.333 33.501 -69s32.5 -37.167 53.5 -49.5s44.167 -18.5 69.5 -18.5c26 0 48.167 4.66699 66.5 14s42.5 25 72.5 47l3 2c8.66699 6.66699 14.667 10 18 10s5 -3.66699 5 -11
c0 -8.66699 0.5 -14.834 1.5 -18.501s3.16699 -7.16699 6.5 -10.5l27 -28c4.66699 -5.33301 11 -8 19 -8c4 0 8.66699 1.66699 14 5l129 58c6.66699 4 11.334 8.16699 14.001 12.5s4 10.833 4 19.5c0 2 -1.66699 5.16699 -5 9.5s-6 6.5 -8 6.5
c-4.66699 0 -11.667 -1.66699 -21 -5c-10 -4 -17.333 -6 -22 -6c-28 0 -42 23 -42 69zM242.999 75.001c-14.667 0 -28.334 6.00098 -41.001 18.001s-23.5 27.5 -32.5 46.5s-16 38.5 -21 58.5s-7.5 37.333 -7.5 52c0 33.333 4.5 63.166 13.5 89.499s20.5 48.5 34.5 66.5
s28.667 31.5 44 40.5s29 13.5 41 13.5c20.667 0 39 -7 55 -21s24 -36.667 24 -68v-2v-234c0 -12 -3.33301 -22 -10 -30s-15.5 -14.167 -26.5 -18.5s-22.667 -7.33301 -35 -9s-25.166 -2.5 -38.499 -2.5z" />
    <glyph glyph-name="alt_f" unicode="&#xf8;" horiz-adv-x="414" 
d="M85 86c0 -14.667 1.33691 -25.166 4.00391 -31.499s6.66699 -11.833 12 -16.5l52 -41c6 -5.33301 12.333 -8 19 -8c4 0 8.66699 1.66699 14 5l95 58c6.66699 4 11.334 8.16699 14.001 12.5s4 10.833 4 19.5c0 2 -1.66699 5.16699 -5 9.5s-6 6.5 -8 6.5
c-4.66699 0 -11.667 -1.66699 -21 -5c-10 -4 -17.333 -6 -22 -6c-27.333 0 -41 15.333 -41 46v321c0 18.667 8.66699 28 26 28h21c14 0 25.5 2.66699 34.5 8s13.5 12.666 13.5 21.999c0 8.66699 -3 14.334 -9 17.001s-13.333 4 -22 4h-45c-12.667 0 -19 5.33301 -19 16v86
c0 26 4.83301 45.167 14.5 57.5s22.167 18.5 37.5 18.5c12 0 21.5 -2.83301 28.5 -8.5s12.167 -13 15.5 -22s5.33301 -18.333 6 -28s1 -20.834 1 -33.501c0 -26 7.66699 -39 23 -39c6.66699 0 12.5 3.5 17.5 10.5s10.167 17.167 15.5 30.5c8 19.333 15.5 39.333 22.5 60
s10.5 34.667 10.5 42c0 18.667 -7.83301 32 -23.5 40s-36.834 12 -63.501 12c-16 0 -34.833 -2 -56.5 -6s-45.334 -13.333 -71.001 -28s-47.834 -38.5 -66.501 -71.5s-28 -76.167 -28 -129.5v-4c0 -2.66699 -1.33301 -4.66699 -4 -6s-6.33398 -2.33301 -11.001 -3
c-19.333 -2 -32.5 -5.5 -39.5 -10.5s-10.5 -12.833 -10.5 -23.5c0 -4.66699 2.16699 -9.66699 6.5 -15s10.166 -8 17.499 -8c4 0 11 2 21 6c6.66699 2.66699 11 4 13 4c4.66699 0 7 -6.33301 7 -19v-377z" />
    </font>
</defs>
</svg>
